Лицензия

MVO

1

1 сезон

Лицензия

Лицензия

13

MVO

1 сезон

Deluxe Edition

pack

Рекомендуем

30

Repack

ВАЖНО

ВАЖНО

Ghostwire

RePack

jed

RePack

fifa19

RePack

RDR2

RePack

NEED FOR SPEED™ PAYBACK

RePack

Кинопоиск HD

 Острые козырьки 6 сезон

6 сезон

FAR CRY 6

RePack

Лицензия

MVO

1

1 сезон

1 сезон

Лицензия

  

Джек Ричер / Reacher / Jack Reacher / Сезон: 1 / Серии: 1-8 из 8 (Норберто Барба, М. Дж. Бассетт, Сэм Хилл) [2022, Боевик, триллер, драма, криминал, WEB-DLRip] MVO [LostFilm]

Джек Ричер через торрент pb.wtf

Размер: 4.92 GB | Добавлен: 7 мес. назад | Торрент скачан:154 раза
Смотреть онлайн Джек Ричер | Скачать   

21-02-2022 20:24 Джек Ричер Скачать торрент  

Джек Ричер | Jack Reacher
«***»
Год выпуска: 2022
Страна: США
Выпущено: Amazon Studios, Blackjack Films Inc., Paramount Television, Skydance Television
Жанр: Боевик, триллер, драма, криминал
Продолжительность: ~ 00:55:00
Перевод: Профессиональный (многоголосый, закадровый) | LostFilm
Субтитры: Русские, английские

Режиссер: Норберто Барба, М. Дж. Бассетт, Сэм Хилл, Омар Мадха, Кристин Мур, Лин Одинг, Стивен Серджик, Тома Венсан

rating

В ролях: Алан Ричсон, Малкольм Гудвин, Уилла Фицджералд, Хью Томпсон, Кристофер Уэбстер, Брюс МакГилл, Макс Дженкинс, Гэвин Уайт, Лесли Фрэй, Джонатан Кёнсген

Описание: Один из самых захватывающих триллеров, рассказывающий о военном, который служит в полиции. Джек Ричер - культовая фигура. Он - один из любимейших персонажей в книжном мире, так как автор Ли Чайлд, популярный у себя на родине, выпустил порядка двадцати произведений, посвященных этому харизматичному герою.

Качество: WEB-DLRip
Формат: AVI

Видео: 704x352, XviD ~1500 kbps avg, 0.29 bit/pixel
Аудио Rus: 48 kHz, MPEG Layer 3, 2 ch, ~128.00 kbps avg
Аудио Eng: 48 kHz, MPEG Layer 3, 2 ch, ~128.00 kbps avg
скриншот  скриншот  скриншот  скриншот  скриншот  скриншот  

Общее
Полное имя : D:\Reacher\Reacher.s01e01.avi
Формат : AVI
Формат/Информация : Audio Video Interleave
Размер файла : 694 Мбайт
Продолжительность : 54 м. 3 с.
Общий поток : 1 794 Кбит/сек
Программа кодирования : VirtualDubMod 1.5.10.2 (build 2540/release)
Библиотека кодирования : VirtualDubMod build 2540/release

Видео
Идентификатор : 0
Формат : MPEG-4 Visual
Профиль формата : Advanced [email protected]
Настройки формата : BVOP1 / Custom Matrix
Параметр BVOP формата : 1
Параметр QPel формата : Нет
Параметр GMC формата : Без точки перехода
Параметр матрицы формата : Выборочная
Идентификатор кодека : XVID
Идентификатор кодека/Подсказка : XviD
Продолжительность : 54 м. 3 с.
Битрейт : 1 456 Кбит/сек
Ширина : 704 пикселя
Высота : 352 пикселя
Соотношение сторон : 2,000
Частота кадров : 23,976 (24000/1001) кадра/сек
Цветовое пространство : YUV
Субдискретизация насыщенности : 4:2:0
Битовая глубина : 8 бит
Тип развёртки : Прогрессивная
Метод сжатия : С потерями
Бит/(Пиксели*Кадры) : 0.245
Размер потока : 563 Мбайт (81%)
Библиотека кодирования : XviD 69

Аудио #1
Идентификатор : 1
Формат : MPEG Audio
Версия формата : Version 1
Профиль формата : Layer 3
Настройки формата : Joint stereo / MS Stereo
Идентификатор кодека : 55
Идентификатор кодека/Подсказка : MP3
Продолжительность : 54 м. 3 с.
Вид битрейта : Постоянный
Битрейт : 128 Кбит/сек
Каналы : 2 канала
Частота : 48,0 КГц
Метод сжатия : С потерями
Размер потока : 49,5 Мбайт (7%)
Выравнивание : Разделение по промежуткам

Аудио #2
Идентификатор : 2
Формат : MPEG Audio
Версия формата : Version 1
Профиль формата : Layer 3
Настройки формата : Joint stereo / MS Stereo
Идентификатор кодека : 55
Идентификатор кодека/Подсказка : MP3
Продолжительность : 54 м. 3 с.
Вид битрейта : Постоянный
Битрейт : 128 Кбит/сек
Каналы : 2 канала
Частота : 48,0 КГц
Метод сжатия : С потерями
Размер потока : 49,5 Мбайт (7%)
Выравнивание : Разделение по промежуткам

Когда раздача ведётся путём добавления новых серий, при каждом добавлении создётся новый торрент. Чтобы начать докачку новой серии, пользователям необходимо сделать следующее:
(1) остановить скачивание,
(2) удалить старый торрент у себя из клиента (старые серии удалять не надо),
(3) скачать новый торрент и запустить его у себя в клиенте вместо старого, при этом указать клиенту путь в старую папку, куда и должно происходить скачивание новых серий.
Ваш клиент при этом должен произвести хеширование (проверку) старой папки (если не производит сам - помогите ему сделать это), и будет докачивать только те серии, которых у вас ещё нет. Старые серии при этом не удаляются, а продолжают раздаваться!
Eсли вы уже удалили старые серии, то предотвратить повторную закачку старых серий можно, отжав галочку в соответсвующих местах при запуске нового торрента. По возможности, желательно не удалять старые серии как можно дольше, чтобы релизёр не столько продолжал раздавать старые серии, а смог сконцентрироваться на новых.




Скачать Джек Ричер через торрент https://i7-imageban-ru.translate.goog/out/2022/02/07/16d3dfdf2e2ef999b93957efda53bb55.png Скачать, смотреть онлайн Джек Ричер бесплантно в хорошем качестве Описание: Один из самых захватывающих триллеров, рассказывающий о военном, который служит в полиции. Джек Ричер - культовая фигура. Он - ... 10 10 6
Торрент: Зарегистрирован [2022-02-21 20:24] · скачан: 154 раз
Статус: √ проверено
Размер: 4.92 GB
Как cкачать? Как скачать Джек Ричер через торрент | UTorrent

% Раздел Тема Автор DL S | L
Зарубежные сериалы [ 13.18 GB ] Джек Ричер / Reacher / Jack Reacher / Сезон: 1 / Серии: 1-8 из 8 | HDRezka Studio | 720p killermax2013 Скачать
2 | 0
Зарубежные сериалы [ 31.63 GB ] Джек Ричер / Reacher / Jack Reacher / Сезон: 1 / Серии: 1-8 из 8 | HDRezka Studio | 1080p bober100 Скачать
1 | 0
Зарубежные сериалы [ 26.51 GB ] Джек Ричер / Reacher / Jack Reacher / Сезон: 1 / Серии: 1-8 из 8 | HDRezka Studio | 1080p bober100 Скачать
1 | 0
Зарубежные сериалы [ 6.42 GB ] Джек Ричер / Reacher / Jack Reacher / Сезон: 1 / Серии: 1-4 из 8 | HDRezka Studio | 720p bober100 Скачать
1 | 0
Зарубежные сериалы [ 6.42 GB ] Джек Ричер / Reacher / Jack Reacher / Сезон: 1 / Серии: 1-8 из 8 | HDRezka Studio | DLRip-AVC bober100 Скачать
3 | 0
Зарубежные сериалы [ 4.73 GB ] Джек Ричер / Reacher / Jack Reacher / Сезон: 1 / Серии: 1-8 из 8 | HDRezka Studio | DLRip bober100 Скачать
1 | 0

28-11-2019 20:33  

Отключить вcю реклaмy на сайте

    Дорогой пользователь! Огромная просьба, поблагодарите релизера, оцените раздачу и оставьте свои комментарий, если Вы скачали Джек Ричер через торрент бесплатно!!
    Комментировать посты могут только пользователи прошедшие не сложную регистрацию
    Показать сообщения:    


    Джек Ричер через торрент
    Скачать бесплатно Джек Ричер
    Джек Ричер скачать торрент
    Джек Ричер смотреть онлайн
    Cкачать фильм Джек Ричер бесплатно
    Джек Ричер скачать торрент в хорошем качестве
    Джек Ричер смотреть онлайн бесплатно в хорошем качестве
    Вы не можете начинать темы
    Вы не можете отвечать на сообщения
    Вы не можете редактировать свои сообщения
    Вы не можете удалять свои сообщения
    Вы не можете голосовать в опросах
    Вы не можете прикреплять файлы к сообщениям
    Вы можете скачивать файлы