Лицензия

MVO

1

1 сезон

Лицензия

Лицензия

13

MVO

1 сезон

Deluxe Edition

pack

Рекомендуем

30

Repack

ВАЖНО

ВАЖНО

Ghostwire

RePack

jed

RePack

fifa19

RePack

RDR2

RePack

NEED FOR SPEED™ PAYBACK

RePack

Кинопоиск HD

 Острые козырьки 6 сезон

6 сезон

FAR CRY 6

RePack

Лицензия

MVO

1

1 сезон

1 сезон

Лицензия

  

Бессмертные (Тигран Кеосаян) [2021, Драма, WEB-DL 1080p] [KION]

Бессмертные через торрент pb.wtf

Раздают: 7 [ 45 KB/s ]
Размер: 4.64 GB | Добавлен: 7 мес. назад | Торрент скачан:280 раз
Смотреть онлайн Бессмертные | Скачать   

22-02-2022 23:52 Бессмертные Скачать торрент  

Бессмертные
Год выпуска: 2021
Страна: Россия
Жанр: Драма
Продолжительность: 01:45:01
Перевод: Не требуется | KION
Субтитры: отсутствуют

Режиссер: Тигран Кеосаян



В ролях: Сергей Пускепалис, Александр Метёлкин, Юрий Стоянов, Артём Ешкин, Фёдор Добронравов, Иван Добронравов, Роман Мадянов, Максим Емельянов, Алексей Демидов, Наталия Вдовина

Описание: Четверо друзей прошли войну в Афганистане и возвращаются домой. Они еду в Москву, где пытаются адаптироваться к мирной жизни. Кто-то подался в бизнес, кто-то — в частные структуры, а кто-то стал писателем. После 20 лет разлуки однополчане встречаются на кладбище, чтобы проводить в последний пусть товарища, умершего от сердечного приступа.В начале 90-х герои картины сталкиваются с неприятием афганской кампании в обществе: их наградам никто не верит, люди считают, что ордена и медали куплены. Бывшим солдатам стыдно появляться на людях в форме, а о своем прошлом они предпочитают лишний раз не вспоминать. Через 20 лет их дружба и любовь к Родине проходят испытание временем.

Качество: WEB-DL 1080p
Формат: MKV

Видео: MPEG-4 AVC, 6144 Kb/s, 1920x1080, 24.000 fps
Аудио: 48.0 kHz, AC3 Dolby Digital, 2/0 (L,R) ch, ~ 192 kbps
скриншот  скриншот  скриншот  скриншот  

Complete name : Bessmertnyie.2021.WEB-DL.1080p.ELEKTRI4KA.UNIONGANG.mkv
Format : Matroska
Format version : Version 4
File size : 4.64 GiB
Duration : 1 h 45 min
Overall bit rate mode : Constant
Overall bit rate : 6 321 kb/s
Movie name : Bessmertnyie.2021.WEB-DL.1080p.ELEKTRI4KA.UNIONGANG.
Encoded date : UTC 2022-02-22 22:28:05
Writing application : mkvmerge v8.3.0 ('Over the Horizon') 32bit
Writing library : libebml v1.3.1 + libmatroska v1.4.2

Video
ID : 1
Format : AVC
Format/Info : Advanced Video Codec
Format profile : [email protected]
Format settings : 2 Ref Frames
Format settings, CABAC : No
Format settings, Reference frames : 2 frames
Format settings, GOP : M=1, N=25
Codec ID : V_MPEG4/ISO/AVC
Duration : 1 h 45 min
Bit rate mode : Constant
Bit rate : 6 144 kb/s
Width : 1 920 pixels
Height : 1 080 pixels
Display aspect ratio : 16:9
Frame rate mode : Constant
Frame rate : 25.000 FPS
Color space : YUV
Chroma subsampling : 4:2:0
Bit depth : 8 bits
Scan type : Progressive
Bits/(Pixel*Frame) : 0.119
Stream size : 4.49 GiB (97%)
Default : Yes
Forced : No

Audio
ID : 2
Format : AC-3
Format/Info : Audio Coding 3
Commercial name : Dolby Digital
Codec ID : A_AC3
Duration : 1 h 45 min
Bit rate mode : Constant
Bit rate : 192 kb/s
Channel(s) : 2 channels
Channel layout : L R
Sampling rate : 48.0 kHz
Frame rate : 31.250 FPS (1536 SPF)
Compression mode : Lossy
Stream size : 144 MiB (3%)
Title : Original (KION)
Language : Russian
Service kind : Complete Main
Default : Yes
Forced : Yes




Скачать Бессмертные через торрент https://i7-imageban-ru.translate.goog/out/2022/02/23/e523e55ccac1ab6830756c318c9c20ce.jpg Скачать, смотреть онлайн Бессмертные бесплантно в хорошем качестве Описание: Четверо друзей прошли войну в Афганистане и возвращаются домой. Они еду в Москву, где пытаются адаптироваться к мирной жизни. ... 8.6 10 13
Торрент: Зарегистрирован [2022-02-22 23:52] · скачан: 280 раз
Статус: T временная
Размер: 4.64 GB
Как cкачать? Как скачать Бессмертные через торрент | UTorrent

% Раздел Тема Автор DL S | L
T Наши новые фильмы 2020 - 2022 [ 1.46 GB ] Бессмертные | | DLRip bober100 Скачать
10 | 1

28-11-2019 20:33  

Отключить вcю реклaмy на сайте

23-02-2022 05:37 Бессмертные Скачать торрент  

вот щяз будет испытание любви к родине, когда дед атжок



18-09-2022 11:04 Бессмертные Скачать торрент  

Рейтин неплохой, проверим )



    Дорогой пользователь! Огромная просьба, поблагодарите релизера, оцените раздачу и оставьте свои комментарий, если Вы скачали Бессмертные через торрент бесплатно!!
    Комментировать посты могут только пользователи прошедшие не сложную регистрацию
    Показать сообщения:    


    Бессмертные через торрент
    Скачать бесплатно Бессмертные
    Бессмертные скачать торрент
    Бессмертные смотреть онлайн
    Cкачать фильм Бессмертные бесплатно
    Бессмертные скачать торрент в хорошем качестве
    Бессмертные смотреть онлайн бесплатно в хорошем качестве
    Вы не можете начинать темы
    Вы не можете отвечать на сообщения
    Вы не можете редактировать свои сообщения
    Вы не можете удалять свои сообщения
    Вы не можете голосовать в опросах
    Вы не можете прикреплять файлы к сообщениям
    Вы можете скачивать файлы