Всегда рабочее зеркало без VPN и Proxy просто перед .vidak.icu напиши любое слово или цифру, Пример http://s1x4.vidak.icu

MVO

Лицензия

1 сезон

1

1 сезон

iTunes

1 сезон

13

1 сезон

Deluxe

pack

Рекомендуем

Пиратка

30

ВАЖНО

RePack

MK11

RePack

jed

RePack

fifa19

RePack

RDR2

RePack

NEED FOR SPEED™ PAYBACK

Кинопоиск HD

6 сезон

 Острые козырьки 6 сезон

Все сериалы

все сериалы на PB.wtf

RePack

FAR CRY 5
  
Magnet ссылка

Матрица: Воскрешение / The Matrix Resurrections (Лана Вачовски) [2021, Фантастика, боевик, BD Remux 1080p] DUB [Кинопоиск HD] +2xMVO [HDRezka Studio, Jaskier] (rus, ukr) +AVO [Д. Есарев] pb.wtf

Матрица: Воскрешение через торрент pb.wtf

Размер: 28.21 GB | Добавлен: 4 мес. 7 д. назад | Торрент скачан:49 раз
Смотреть онлайн Матрица: Воскрешение | Скачать    Ребята, помогите собрать деньги на оплату серверов!!!

23-02-2022 05:24 Матрица: Воскрешение Скачать торрент  

Матрица: Воскрешение
The Matrix Resurrections

Год выпуска: 2021
Страна: США
Студия: NPV Entertainment, Silver Pictures, Village Roadshow Pictures, Warner Bros.
Жанр: Фантастика, боевик
Продолжительность: 02:27:54
Перевод(ы):
#1: Дублированный | Кинопоиск HD
#2: Профессиональный многоголосый | HDRezka Studio
#3: Профессиональный многоголосый | Jaskier
#4: Авторский | Д. Есарев
Субтитры: Русские (Forced, full, SDH), украинский (Forced), английские

Режиссер: Лана Вачовски

rating

В ролях: Киану Ривз, Кэрри-Энн Мосс, Кристина Риччи, Джессика Хенвик, Дэниэл Бернхард, Джонатан Грофф, Приянка Чопра Джонас, Яхья Абдул-Матин II, Эллен Холлман, Джада Пинкетт Смит

Описание: Что делать, если окружающий мир кажется ловушкой, а самые фантастические сны больше похожи на настоящую жизнь, чем повседневная реальность? Хочешь найти правду? Следуй за белым кроликом, чтобы вернуться туда, где все началось... Обратно в Матрицу. Действие фильма «Матрица: Воскрешение» разворачивается спустя 20 лет после событий, показанных в третьей части. Отныне Нео живёт самой обычной жизнью, скрывая свою настоящую личность. Теперь его зовут Томас А. Андерсон. Нео старательно маскируется, ничем не отличаясь от среднестатистического обитателя Сан-Франциско.

Качество: BD Remux 1080p
Формат: MKV

Видео: MPEG-4 AVC, 1920x1080, 20.8 Mbit/s, 23.976 fps
Аудио #01: 48 kHz, E-AC3, 5.1, 448 Kbps | Дублированный | Кинопоиск HD | RUS |
Аудио #02: 48 kHz, AC3, 5.1, 448 Kbps | Дублированный | Кинопоиск HD | RUS |
Аудио #03: 48 kHz, AC3, 5.1, 448 Kbps | Профессиональный многоголосый | HDRezka Studio | RUS |
Аудио #04: 48 kHz, AC3, 5.1, 448 Kbps | Профессиональный многоголосый | Jaskier | RUS |
Аудио #05: 48 kHz, AC3, 5.1, 640 Kbps | Авторский | Д. Есарев | RUS |
Аудио #06: 48 kHz, AC3, 5.1, 384 Kbps | Профессиональный многоголосый | HDRezka Studio | UKR |
Аудио #07: 48 kHz, TrueHD, 7.1, 3140 Kbps | Оригинал | ENG |
Аудио #08: 48 kHz, AC3, 5.1, 448 Kbps | Оригинал | ENG |
скриншот  скриншот  скриншот  скриншот  скриншот  

General
Unique ID : 97559599060597505148243283995039727908 (0x49654B9A0C0CD3DF2BB97022AC518124)
Complete name : D:VideoThe.Matrix.Resurrections.2021.BDREMUX.1080p.seleZen.mkv
Format : Matroska
Format version : Version 4
File size : 28.2 GiB
Duration : 2 h 27 min
Overall bit rate mode : Variable
Overall bit rate : 27.3 Mb/s
Movie name : The Matrix Resurrections 2021 from seleZen
Encoded date : UTC 2022-02-23 03:37:55
Writing application : mkvmerge v59.0.0 ('Shining Star') 64-bit
Writing library : libebml v1.4.2 + libmatroska v1.6.4

Video
ID : 1
Format : AVC
Format/Info : Advanced Video Codec
Format profile : High@L4.1
Format settings : CABAC / 4 Ref Frames
Format settings, CABAC : Yes
Format settings, Reference : 4 frames
Codec ID : V_MPEG4/ISO/AVC
Duration : 2 h 27 min
Bit rate mode : Variable
Bit rate : 20.8 Mb/s
Maximum bit rate : 29.5 Mb/s
Width : 1 920 pixels
Height : 1 080 pixels
Display aspect ratio : 16:9
Frame rate mode : Constant
Frame rate : 23.976 (24000/1001) FPS
Color space : YUV
Chroma subsampling : 4:2:0
Bit depth : 8 bits
Scan type : Progressive
Bits/(Pixel*Frame) : 0.419
Stream size : 21.5 GiB (76%)
Language : English
Default : No
Forced : No

Audio #1
ID : 2
Format : E-AC-3
Format/Info : Enhanced AC-3
Commercial name : Dolby Digital Plus
Codec ID : A_EAC3
Duration : 2 h 27 min
Bit rate mode : Constant
Bit rate : 448 kb/s
Channel(s) : 6 channels
Channel layout : L R C LFE Ls Rs
Sampling rate : 48.0 kHz
Frame rate : 31.250 FPS (1536 SPF)
Compression mode : Lossy
Stream size : 474 MiB (2%)
Title : Dub
Language : Russian
Service kind : Complete Main
Default : Yes
Forced : Yes

Audio #2
ID : 3
Format : AC-3
Format/Info : Audio Coding 3
Commercial name : Dolby Digital
Codec ID : A_AC3
Duration : 2 h 27 min
Bit rate mode : Constant
Bit rate : 448 kb/s
Channel(s) : 6 channels
Channel layout : L R C LFE Ls Rs
Sampling rate : 48.0 kHz
Frame rate : 31.250 FPS (1536 SPF)
Compression mode : Lossy
Stream size : 474 MiB (2%)
Title : Dub
Language : Russian
Service kind : Complete Main
Default : No
Forced : No

Audio #3
ID : 4
Format : AC-3
Format/Info : Audio Coding 3
Commercial name : Dolby Digital
Codec ID : A_AC3
Duration : 2 h 27 min
Bit rate mode : Constant
Bit rate : 448 kb/s
Channel(s) : 6 channels
Channel layout : L R C LFE Ls Rs
Sampling rate : 48.0 kHz
Frame rate : 31.250 FPS (1536 SPF)
Compression mode : Lossy
Stream size : 474 MiB (2%)
Title : MVO [HDRezka Studio]
Language : Russian
Service kind : Complete Main
Default : No
Forced : No

Audio #4
ID : 5
Format : AC-3
Format/Info : Audio Coding 3
Commercial name : Dolby Digital
Codec ID : A_AC3
Duration : 2 h 27 min
Bit rate mode : Constant
Bit rate : 448 kb/s
Channel(s) : 6 channels
Channel layout : L R C LFE Ls Rs
Sampling rate : 48.0 kHz
Frame rate : 31.250 FPS (1536 SPF)
Compression mode : Lossy
Stream size : 474 MiB (2%)
Title : MVO [Jaskier]
Language : Russian
Service kind : Complete Main
Default : No
Forced : No

Audio #5
ID : 6
Format : AC-3
Format/Info : Audio Coding 3
Commercial name : Dolby Digital
Codec ID : A_AC3
Duration : 2 h 27 min
Bit rate mode : Constant
Bit rate : 640 kb/s
Channel(s) : 6 channels
Channel layout : L R C LFE Ls Rs
Sampling rate : 48.0 kHz
Frame rate : 31.250 FPS (1536 SPF)
Compression mode : Lossy
Stream size : 677 MiB (2%)
Title : AVO [Yesarev]
Language : Russian
Service kind : Complete Main
Default : No
Forced : No

Audio #6
ID : 7
Format : AC-3
Format/Info : Audio Coding 3
Commercial name : Dolby Digital
Codec ID : A_AC3
Duration : 2 h 27 min
Bit rate mode : Constant
Bit rate : 384 kb/s
Channel(s) : 6 channels
Channel layout : L R C LFE Ls Rs
Sampling rate : 48.0 kHz
Frame rate : 31.250 FPS (1536 SPF)
Compression mode : Lossy
Stream size : 406 MiB (1%)
Title : MVO [HDRezka & DniproFilm]
Language : Ukrainian
Service kind : Complete Main
Default : No
Forced : No

Audio #7
ID : 8
Format : MLP FBA 16-ch
Format/Info : Meridian Lossless Packing FBA with 16-channel presentation
Commercial name : Dolby TrueHD with Dolby Atmos
Codec ID : A_TRUEHD
Duration : 2 h 27 min
Bit rate mode : Variable
Bit rate : 3 140 kb/s
Maximum bit rate : 5 967 kb/s
Channel(s) : 8 channels
Channel layout : L R C LFE Ls Rs Lb Rb
Sampling rate : 48.0 kHz
Frame rate : 1 200.000 FPS (40 SPF)
Compression mode : Lossless
Stream size : 3.25 GiB (12%)
Title : Atmos TrueHD7.1
Language : English
Default : No
Forced : No
Number of dynamic objects : 11
Bed channel count : 1 channel
Bed channel configuration : LFE

Audio #8
ID : 9
Format : AC-3
Format/Info : Audio Coding 3
Commercial name : Dolby Digital
Format settings : Dolby Surround EX
Codec ID : A_AC3
Duration : 2 h 27 min
Bit rate mode : Constant
Bit rate : 448 kb/s
Channel(s) : 6 channels
Channel layout : L R C LFE Ls Rs
Sampling rate : 48.0 kHz
Frame rate : 31.250 FPS (1536 SPF)
Compression mode : Lossy
Stream size : 474 MiB (2%)
Language : English
Service kind : Complete Main
Default : No
Forced : No

Text #1
ID : 10
Format : UTF-8
Codec ID : S_TEXT/UTF8
Codec ID/Info : UTF-8 Plain Text
Duration : 2 h 24 min
Bit rate : 0 b/s
Count of elements : 11
Stream size : 386 Bytes (0%)
Title : Forced
Language : Russian
Default : Yes
Forced : Yes

Text #2
ID : 11
Format : UTF-8
Codec ID : S_TEXT/UTF8
Codec ID/Info : UTF-8 Plain Text
Duration : 2 h 26 min
Bit rate : 76 b/s
Count of elements : 1688
Stream size : 82.5 KiB (0%)
Title : Full
Language : Russian
Default : No
Forced : No

Text #3
ID : 12
Format : UTF-8
Codec ID : S_TEXT/UTF8
Codec ID/Info : UTF-8 Plain Text
Duration : 2 h 27 min
Bit rate : 96 b/s
Count of elements : 2189
Stream size : 104 KiB (0%)
Title : SDH
Language : Russian
Default : No
Forced : No

Text #4
ID : 13
Format : UTF-8
Codec ID : S_TEXT/UTF8
Codec ID/Info : UTF-8 Plain Text
Duration : 54 min 7 s
Bit rate : 2 b/s
Count of elements : 17
Stream size : 878 Bytes (0%)
Title : Forced
Language : Ukrainian
Default : No
Forced : No

Text #5
ID : 14
Format : UTF-8
Codec ID : S_TEXT/UTF8
Codec ID/Info : UTF-8 Plain Text
Duration : 2 h 27 min
Bit rate : 51 b/s
Count of elements : 2185
Stream size : 55.7 KiB (0%)
Title : Full
Language : English
Default : No
Forced : No

Text #6
ID : 15
Format : UTF-8
Codec ID : S_TEXT/UTF8
Codec ID/Info : UTF-8 Plain Text
Duration : 2 h 27 min
Bit rate : 51 b/s
Count of elements : 2188
Stream size : 55.8 KiB (0%)
Title : SDH
Language : English
Default : No
Forced : No

Menu
00:00:00.000 : Chapter 01
00:04:06.079 : Chapter 02
00:13:44.782 : Chapter 03
00:22:39.358 : Chapter 04
00:30:47.637 : Chapter 05
00:39:00.630 : Chapter 06
00:47:42.485 : Chapter 07
00:54:20.799 : Chapter 08
01:03:01.194 : Chapter 09
01:11:51.557 : Chapter 10
01:20:40.294 : Chapter 11
01:30:30.258 : Chapter 12
01:39:38.681 : Chapter 13
01:48:59.867 : Chapter 14
01:53:17.874 : Chapter 15
02:02:57.620 : Chapter 16
02:12:33.445 : Chapter 17
02:16:40.901 : Chapter 18

pb.wtf



Скачать Матрица: Воскрешение через торрент https://i4.imageban.ru/out/2022/02/23/ea26569b9cc2eb695ea63fb2c8e089da.png Скачать, смотреть онлайн Матрица: Воскрешение бесплантно в хорошем качестве Описание: Что делать, если окружающий мир кажется ловушкой, а самые фантастические сны больше похожи на настоящую жизнь, чем повседневная ... 9.8 10 4
Торрент: Зарегистрирован [2022-02-23 05:24] · скачан: 49 раз
Статус: √ проверено
Размер: 28.21 GB
Как cкачать? Как скачать Матрица: Воскрешение через торрент | UTorrent

% Раздел Тема Автор DL S | L
Ultra HD (UHD: 2K, 4K, 8K) — видео сверхвысокой чёткости [ 73.42 GB ] Матрица: Воскрешение / The Matrix Resurrections [2021 UHD BDRemux 2160p ] DUB [Кинопоиск HD] +2xMVO [HDRezka Studio Jaskier] +AVO [Д. Есарев] bober100 Скачать
1 | 0
Ultra HD (UHD: 2K, 4K, 8K) — видео сверхвысокой чёткости [ 69.58 GB ] Матрица: Воскрешение / The Matrix Resurrections [2021 UHD BDRemux 2160p ] DUB [Кинопоиск HD] +2xMVO [HDRezka Studio Jaskier] +AVO [Д. Есарев] bober100 Скачать
2 | 0
Фильмы [HD 720p, 1080p] (Хороший звук DUB, MVO) [ 15.82 GB ] Матрица: Воскрешение / The Matrix Resurrections [2021 BDRip 1080p] DUB [Кинопоиск HD] +2xMVO [HDRezka Studio Jaskier] +AVO [Д. Есарев] bober100 Скачать
4 | 0
Ultra HD (UHD: 2K, 4K, 8K) — видео сверхвысокой чёткости [ 21.19 GB ] Матрица: Воскрешение / The Matrix Resurrections [2021 UHD WEB-DL-HEVC 2160p] 2xMVO [HDRezka Studio Jaskier] +AVO [Д. Есарев] bober100 Скачать
8 | 0
Фильмы [HD 720p, 1080p] (Хороший звук DUB, MVO) [ 7.46 GB ] Матрица: Воскрешение / The Matrix Resurrections [2021 BDRip 720p] DUB [Кинопоиск HD] +2xMVO [HDRezka Studio Jaskier] +AVO [Д. Есарев] bober100 Скачать
3 | 0

28-11-2019 20:33  

Отключить всю рекламу на сайте

    Дорогой пользователь! Огромная просьба, поблагодарите релизера, оцените раздачу и оставьте свои комментарий, если Вы скачали Матрица: Воскрешение через торрент бесплатно!
    Комментировать посты могут только пользователи прошедшие не сложную регистрацию
    Показать сообщения:    

    Матрица: Воскрешение через торрент
    Скачать бесплатно Матрица: Воскрешение
    Матрица: Воскрешение скачать торрент
    Матрица: Воскрешение смотреть онлайн
    Cкачать фильм Матрица: Воскрешение бесплатно
    Матрица: Воскрешение скачать торрент в хорошем качестве
    Матрица: Воскрешение смотреть онлайн бесплатно в хорошем качестве


    Вы не можете начинать темы
    Вы не можете отвечать на сообщения
    Вы не можете редактировать свои сообщения
    Вы не можете удалять свои сообщения
    Вы не можете голосовать в опросах
    Вы не можете прикреплять файлы к сообщениям
    Вы можете скачивать файлы