Всегда рабочее зеркало без VPN и Proxy просто перед .vidak.icu напиши любое слово или цифру, Пример http://wwpn.vidak.icu

MVO

Лицензия

1 сезон

1

1 сезон

iTunes

1 сезон

13

1 сезон

Deluxe

pack

Рекомендуем

Пиратка

30

ВАЖНО

RePack

MK11

RePack

jed

RePack

fifa19

RePack

RDR2

RePack

NEED FOR SPEED™ PAYBACK

Кинопоиск HD

6 сезон

 Острые козырьки 6 сезон

Все сериалы

все сериалы на PB.wtf

RePack

FAR CRY 5
  
Magnet ссылка

Фантазии для взрослых / Les fantasmes (Давид Фонкинос, Стефан Фонкинос) [2021, Комедия, WEB-DL 1080p] DUB [iTunes] pb.wtf

Фантазии для взрослых через торрент pb.wtf

Раздают: 5 [ 0 KB/s ]
Размер: 5.29 GB | Добавлен: 3 мес. 26 д. назад | Торрент скачан:175 раз
Смотреть онлайн Фантазии для взрослых | Скачать    Ребята, помогите собрать деньги на оплату серверов!!!

25-02-2022 16:05 Фантазии для взрослых Скачать торрент  

Фантазии для взрослых
Les fantasmes

Год выпуска: 2021
Страна: Франция
Студия: Angoa-Agicoa, Canal+ [fr], Ciné, France 2 Cinéma, France Télévision, Gaumont, Mandarin Films, Mandarin Productions
Жанр: Комедия
Продолжительность: 01:41:50
Перевод: Дублированный | iTunes
Субтитры: Французские

Режиссер: Давид Фонкинос, Стефан Фонкинос

rating

В ролях: Карин Вьяр, Кароль Буке, Моника Беллуччи, Дени Подалидес, Сюзанн Клеман, Матис Барбедетт, Полин Клеман, Гаэль Камилинди, Жереми Липман, Эмерик Комеруа, Фабьен Калер, Николя Бедос, Селин Саллетт, Мари-Жюли Бо, Рамзи Бедиа

Описание: За закрытыми дверьми спален всегда найдется место для смешных, неловких, уморительных или просто забавных ситуаций. Шесть разных пар в погоне за острыми ощущениями устроят настоящую буффонаду — кому удастся укрепить отношения, а кто обречен на френдзону?

Качество: WEB-DL 1080p
Формат: MKV

Видео: MPEG-4 AVC, 1916x956, 6667 Kbit/s, 24.000 fps
Аудио #01: 48 kHz, AC3, 5.1, 384 Kbps | iTunes | RUS |
Аудио #02: 48 kHz, AC3, 5.1, 384 Kbps | Оригинал | ENG |
скриншот  скриншот  скриншот  скриншот  скриншот  

General
Unique ID : 81290236172496174564246571208640934076 (0x3D27EE14AEC1AC6D60179E2A1FF1B0BC)
Complete name : D:Video1Les.fantasmes.2021.WEB-DL.1080p.seleZen.mkv
Format : Matroska
Format version : Version 4
File size : 5.29 GiB
Duration : 1 h 41 min
Overall bit rate : 7 437 kb/s
Movie name : Les fantasmes 2021 from seleZen
Encoded date : UTC 2022-03-08 02:22:30
Writing application : mkvmerge v59.0.0 ('Shining Star') 64-bit
Writing library : libebml v1.4.2 + libmatroska v1.6.4

Video
ID : 1
Format : AVC
Format/Info : Advanced Video Codec
Format profile : High@L4
Format settings : CABAC / 4 Ref Frames
Format settings, CABAC : Yes
Format settings, Reference : 4 frames
Codec ID : V_MPEG4/ISO/AVC
Duration : 1 h 41 min
Bit rate : 6 667 kb/s
Width : 1 916 pixels
Height : 956 pixels
Display aspect ratio : 2.004
Frame rate mode : Constant
Frame rate : 24.000 FPS
Color space : YUV
Chroma subsampling : 4:2:0
Bit depth : 8 bits
Scan type : Progressive
Bits/(Pixel*Frame) : 0.152
Stream size : 4.74 GiB (90%)
Language : English
Default : Yes
Forced : No
Color range : Limited
Color primaries : BT.709
Transfer characteristics : BT.709
Matrix coefficients : BT.709

Audio #1
ID : 2
Format : AC-3
Format/Info : Audio Coding 3
Commercial name : Dolby Digital
Codec ID : A_AC3
Duration : 1 h 41 min
Bit rate mode : Constant
Bit rate : 384 kb/s
Channel(s) : 6 channels
Channel layout : L R C LFE Ls Rs
Sampling rate : 48.0 kHz
Frame rate : 31.250 FPS (1536 SPF)
Compression mode : Lossy
Stream size : 280 MiB (5%)
Title : iTunes
Language : Russian
Service kind : Complete Main
Default : Yes
Forced : Yes

Audio #2
ID : 3
Format : AC-3
Format/Info : Audio Coding 3
Commercial name : Dolby Digital
Codec ID : A_AC3
Duration : 1 h 41 min
Bit rate mode : Constant
Bit rate : 384 kb/s
Channel(s) : 6 channels
Channel layout : L R C LFE Ls Rs
Sampling rate : 48.0 kHz
Frame rate : 31.250 FPS (1536 SPF)
Compression mode : Lossy
Stream size : 280 MiB (5%)
Title : Original
Language : French
Service kind : Complete Main
Default : No
Forced : No

Text
ID : 4
Format : UTF-8
Codec ID : S_TEXT/UTF8
Codec ID/Info : UTF-8 Plain Text
Duration : 1 h 41 min
Bit rate : 68 b/s
Count of elements : 1794
Stream size : 50.8 KiB (0%)
Title : SDH
Language : French
Default : No
Forced : No

Menu
00:00:00.000 : Chapter 01
00:03:07.458 : Chapter 02
00:24:07.250 : Chapter 03
00:36:55.708 : Chapter 04
00:52:09.958 : Chapter 05
01:08:46.208 : Chapter 06
01:18:06.708 : Chapter 07
01:27:19.041 : Chapter 08
01:36:46.916 : Chapter 09

pb.wtf



Скачать Фантазии для взрослых через торрент https://i5.imageban.ru/out/2022/03/08/13e9ed21bb02cd93446b2cef911c022f.jpg Скачать, смотреть онлайн Фантазии для взрослых бесплантно в хорошем качестве Описание: За закрытыми дверьми спален всегда найдется место для смешных, неловких, уморительных или просто забавных ситуаций. Шесть разных ... 9.9 10 16
Торрент: Зарегистрирован [2022-03-08 04:36] · скачан: 175 раз
Статус: √ проверено
Размер: 5.29 GB
Как cкачать? Как скачать Фантазии для взрослых через торрент | UTorrent

% Раздел Тема Автор DL S | L
Фильмы 2021 [DVDrip, WEB-DLRip, HDrip] (DUB, MVO) [ 1.79 GB ] Фантазии для взрослых / Les fantasmes [2021 WEB-DLRip-AVC] от ExKinoRay Lithuania Скачать
5 | 0
Фильмы 2021 [DVDrip, WEB-DLRip, HDrip] (DUB, MVO) [ 747 MB ] Фантазии для взрослых / Les fantasmes [2021 WEB-DLRip] bober100 Скачать
3 | 0
Фильмы 2021 [DVDrip, WEB-DLRip, HDrip] (DUB, MVO) [ 1.46 GB ] Фантазии для взрослых / Les fantasmes [2021 WEB-DLRip] bober100 Скачать
5 | 0

28-11-2019 20:33  

Отключить всю рекламу на сайте

    Дорогой пользователь! Огромная просьба, поблагодарите релизера, оцените раздачу и оставьте свои комментарий, если Вы скачали Фантазии для взрослых через торрент бесплатно!
    Комментировать посты могут только пользователи прошедшие не сложную регистрацию
    Показать сообщения:    

    Фантазии для взрослых через торрент
    Скачать бесплатно Фантазии для взрослых
    Фантазии для взрослых скачать торрент
    Фантазии для взрослых смотреть онлайн
    Cкачать фильм Фантазии для взрослых бесплатно
    Фантазии для взрослых скачать торрент в хорошем качестве
    Фантазии для взрослых смотреть онлайн бесплатно в хорошем качестве


    Вы не можете начинать темы
    Вы не можете отвечать на сообщения
    Вы не можете редактировать свои сообщения
    Вы не можете удалять свои сообщения
    Вы не можете голосовать в опросах
    Вы не можете прикреплять файлы к сообщениям
    Вы можете скачивать файлы