Всегда рабочее зеркало без VPN и Proxy просто перед .vidak.icu напиши любое слово или цифру, Пример http://rbnk.vidak.icu

MVO

2 сезон

2 сезон

1

1 сезон

iTunes

2 сезон

13

1 сезон

Deluxe

pack

Рекомендуем

Пиратка

30

ВАЖНО

RePack

MK11

RePack

jed

RePack

fifa19

RePack

RDR2

RePack

NEED FOR SPEED™ PAYBACK

Кинопоиск HD

6 сезон

 Острые козырьки 6 сезон

Все сериалы

все сериалы на PB.wtf

RePack

FAR CRY 5

Anonymous, нам критически не хватает 5601 руб. на оплату серверов и переферии за Апрель, помоги нам пожалуйста, вся надежда только на тебя. В благодарность мы отключим тебе всю рекламу на сайте!

×
  
Magnet ссылка

Суперзвезда / France (Брюно Дюмон) [2021 г., драма, комедия, HDRip, Дубляж "iTunes"] pb.wtf

Суперзвезда через торрент pb.wtf

Размер: 809 MB | Добавлен: 2 мес. 23 д. назад | Торрент скачан:12 раз
Смотреть онлайн Суперзвезда | Скачать    Ребята, помогите собрать деньги на оплату серверов!!!

25-02-2022 17:49 Суперзвезда Скачать торрент  

Суперзвезда / France
Год выпуска: 2021
Страна: Франция, Германия, Италия, Бельгия / 3B Productions, Red Balloon Film, Tea Time Film
Жанр: драма, комедия
Продолжительность: 02:13:24
Перевод: Дубляж (iTunes)
«Одна ошибка, и ты - не охотница, ты - добыча»

Режиссер: Брюно Дюмон

rating

В ролях: Леа Сейду, Бланш Гарден, Бенжамин Биолэй, Эмануэле Ариоли, Юлиана Кёлер, Гаэтан Амиэль, Джавад Земмар, Марк Беттинелли, Люсиль Рош, Нура Бенбалули

Описание: Смелая и циничная тележурналистка Франс де Мер лезет во все горячие точки планеты, хамит президенту на пресс-конференциях и блистает на светских вечеринках. Внезапно одна ошибка меняет ее бурную жизнь: она больше не хочет быть в центре внимания и тяготится славой. Но когда акула шоу-бизнеса прекращает охоту, она сама становится лакомой добычей. Став королевой дизлайков, ей нужно найти силы, чтобы вернуть свою прежнюю жизнь.

Качество: HDRip
Формат: AVI
Видео кодек: DivX
Аудио кодек: MP3
Видео: 640x352 (1.82:1), 23.976 fps, DivX Codec 4.x ~710 kbps avg, 0.13 bit/pixel
Аудио: 48 kHz, MPEG Layer 3, 2 ch, ~128.00 kbps avg

Общее
Полное имя : G:\ФИЛЬМЫ\Суперзвезда.2021.D.HDRip.avi
Формат : AVI
Формат/Информация : Audio Video Interleave
Размер файла : 809 Мбайт
Продолжительность : 2 ч. 13 м.
Общий поток : 848 Кбит/сек
Программа кодирования : VirtualDubMod 1.5.10.3 | www.virtualdub-fr.org || (build 2550/release)
Библиотека кодирования : VirtualDubMod build 2550/release

Видео
Идентификатор : 0
Формат : MPEG-4 Visual
Профиль формата : Advanced Simple@L5
Настройки формата : BVOP2
Параметр BVOP формата : 2
Параметр QPel формата : Нет
Параметр GMC формата : Без точки перехода
Параметр матрицы формата : Default (MPEG)
Идентификатор кодека : DIVX
Идентификатор кодека/Информация : Project Mayo
Идентификатор кодека/Подсказка : DivX 4
Продолжительность : 2 ч. 13 м.
Битрейт : 710 Кбит/сек
Ширина : 640 пикселей
Высота : 352 пикселя
Соотношение сторон : 16:9
Частота кадров : 23,976 (24000/1001) кадра/сек
Цветовое пространство : YUV
Субдискретизация насыщенности : 4:2:0
Битовая глубина : 8 бит
Тип развёртки : Прогрессивная
Метод сжатия : С потерями
Бит/(Пиксели*Кадры) : 0.132
Размер потока : 678 Мбайт (84%)
Библиотека кодирования : XviD 1.2.1 (UTC 2008-12-04)

Аудио
Идентификатор : 1
Формат : MPEG Audio
Версия формата : Version 1
Профиль формата : Layer 3
Настройки формата : Joint stereo / MS Stereo
Идентификатор кодека : 55
Идентификатор кодека/Подсказка : MP3
Продолжительность : 2 ч. 13 м.
Вид битрейта : Постоянный
Битрейт : 128 Кбит/сек
Каналы : 2 канала
Частота : 48,0 КГц
Частота кадров : 41,667 кадра/сек (1152 SPF)
Метод сжатия : С потерями
Размер потока : 122 Мбайт (15%)
Выравнивание : Соединение по промежуткам
Продолжительность промежутка : 42 мс. (1,00 видеокадр)
Время предзагрузки промежутка : 504 мс.
Библиотека кодирования : LAME3.99r
Настройки программы : -m j -V 4 -q 2 -lowpass 17 -b 128

Report created by : MediaInfoLib - v21.09
Report created on : UTC 2022-02-25 17:39:36

pb.wtf



Скачать Суперзвезда через торрент https://pic1.kartinco.top/new/img/2022-02/25/k4z28fwnemg034gn6mtjvm7gj.png Скачать, смотреть онлайн Суперзвезда бесплантно в хорошем качестве Описание: Смелая и циничная тележурналистка Франс де Мер лезет во все горячие точки планеты, хамит президенту на пресс-конференциях и ... 5 10 1
Торрент: Зарегистрирован [2022-02-25 17:49] · скачан: 12 раз
Статус: √ проверено
Размер: 809 MB
Как cкачать? Как скачать Суперзвезда через торрент | UTorrent

% Раздел Тема Автор DL S | L
Фильмы 2021 [DVDrip, WEB-DLRip, HDrip] (DUB, MVO) [ 2.68 GB ] Суперзвезда / France [2021 BDRip-AVC] -=BIGBOSS=- Скачать
2 | 0
Фильмы 2021 [DVDrip, WEB-DLRip, HDrip] (DUB, MVO) [ 1.46 GB ] Суперзвезда / Франс / France [2021 BDRip] DUB [Lucky Production / ] bober100 Скачать
2 | 0
Фильмы 2021 [DVDrip, WEB-DLRip, HDrip] (DUB, MVO) [ 2.12 GB ] Суперзвезда / Франс / France [2021 BDRip] DUB [Lucky Production / ] bober100 Скачать
4 | 0

28-11-2019 20:33  

Отключить всю рекламу на сайте

    Дорогой пользователь! Огромная просьба, поблагодарите релизера, оцените раздачу и оставьте свои комментарий, если Вы скачали Суперзвезда через торрент бесплатно!
    Комментировать посты могут только пользователи прошедшие не сложную регистрацию
    Показать сообщения:    

    Суперзвезда через торрент
    Скачать бесплатно Суперзвезда
    Суперзвезда скачать торрент
    Суперзвезда смотреть онлайн
    Cкачать фильм Суперзвезда бесплатно
    Суперзвезда скачать торрент в хорошем качестве
    Суперзвезда смотреть онлайн бесплатно в хорошем качестве


    Вы не можете начинать темы
    Вы не можете отвечать на сообщения
    Вы не можете редактировать свои сообщения
    Вы не можете удалять свои сообщения
    Вы не можете голосовать в опросах
    Вы не можете прикреплять файлы к сообщениям
    Вы можете скачивать файлы