Аватар: Путь воды

Лицензия

Сансара

1 сезон

скачать смотреть онлайн John Wick Chapter 4

MVO

Крик 6

Дубляж

13 клиническая

3 сезон

Восстание зловещих мертвецов

Дубляж

Одни из нас

Дубляж

Dead Island 2 Gold

Gold

Deluxe

Deluxe

pack

Рекомендуем

ВАЖНО

ВАЖНО

30

Repack

The Lord of the Rings: Gollum

Лицензия

jed

RePack

nioh2

RePack

RDR2

RePack

NEED FOR SPEED™ PAYBACK

RePack

скачать торрент

Кинопоиск HD

Острые козырьки 6 сезон

6 сезон

FAR CRY 6

RePack

скачать торрент

Лицензия

скачать торрент

MVO

1

1 сезон

скачать торрент

1 сезон

скачать торрент

Лицензия

  

Мы – монстры 2 / Monster Family 2 (Хольгер Таппе) [2021, Мультфильм, приключения, детский, семейный, BDRip 1080p] Дубляж [iTunes]

Мы – монстры 2 через торрент pb.wtf

Размер: 8.15 GB | Добавлен: 1 год 1 мес. назад | Торрент скачан:152 раза
Смотреть онлайн | Скачать | Поддержите нас   

27-02-2022 15:51 Мы – монстры 2 Скачать торрент  

Мы – монстры 2
Monster Family 2

Год выпуска: 2021
Страна: Великобритания, Германия
Студия: Ambient Entertainment GmbH, Rothkirch Cartoon Film, Timeless Films
Жанр: Мультфильм, приключения, детский, семейный
Продолжительность: 01:39:05
Перевод: Дублированный | iTunes
Субтитры: Aнглийские

Режиссер: Хольгер Таппе

rating

В ролях: Дэниэл Бен Зеноу, Джессика Браун-Финдлэй, Эмили Кэри, Ник Фрост, Джейсон Айзекс, Итан Раус, Кэтрин Тейт, Эмили Уотсон

Описание: Баба Яга и Горбун решили сыграть свадьбу! Семья Уишбон точно не пропустит такой праздник, так как теперь они родственники! Но как раз во время церемонии НЕ молодую пару возлюбленных похищает девочка Старр, обладающая сверхчеловеческими способностями! Что ж, Уишбонам придется вновь прибегнуть к помощи магии и снова превратиться в монстров: мама вампир, папа Франкенштейн и их дети — непоседливый оборотень и обаятельная мумия, отправляются в новое приключение. Ведь свадьба должна состояться несмотря ни на что!

Качество: BDRip 1080p
Формат: MKV

Видео: MPEG-4 AVC, 10.3 Mb/s, 1920x804, 23.976 fps
Аудио #01: 48 kHz, AC3, 5.1, 384 Kbps | Дублированный | iTunes | RUS |
Аудио #02: 48 kHz, AC3, 5.1, 640 Kbps | Оригинал | ENG |
скриншот  скриншот  скриншот  скриншот  

Complete name : Monster.Family.2.2021.BDRip.1080p.ELEKTRI4KA.UNIONGANG.mkv
Format : Matroska
Format version : Version 4
File size : 8.15 GiB
Duration : 1 h 43 min
Overall bit rate : 11.3 Mb/s
Movie name : Monster.Family.2.2021.BDRip.1080p.ELEKTRI4KA.UNIONGANG
Encoded date : UTC 2022-04-06 20:49:26
Writing application : mkvmerge v8.3.0 ('Over the Horizon') 32bit
Writing library : libebml v1.3.1 + libmatroska v1.4.2

Video
ID : 1
Format : AVC
Format/Info : Advanced Video Codec
Format profile : [email protected]
Format settings : CABAC / 5 Ref Frames
Format settings, CABAC : Yes
Format settings, Reference frames : 5 frames
Codec ID : V_MPEG4/ISO/AVC
Duration : 1 h 43 min
Bit rate : 10.3 Mb/s
Width : 1 920 pixels
Height : 804 pixels
Display aspect ratio : 2.40:1
Frame rate mode : Constant
Frame rate : 23.976 (24000/1001) FPS
Color space : YUV
Chroma subsampling : 4:2:0
Bit depth : 8 bits
Scan type : Progressive
Bits/(Pixel*Frame) : 0.278
Stream size : 7.41 GiB (91%)
Writing library : x264 core 157 r2958 57baac4
Encoding settings : cabac=1 / ref=5 / deblock=1:-3:-3 / analyse=0x3:0x113 / me=umh / subme=10 / psy=1 / psy_rd=1.00:0.15 / mixed_ref=1 / me_range=32 / chroma_me=1 / trellis=2 / 8x8dct=1 / cqm=0 / deadzone=21,11 / fast_pskip=0 / chroma_qp_offset=-3 / threads=25 / lookahead_threads=4 / sliced_threads=0 / nr=1 / decimate=0 / interlaced=0 / bluray_compat=0 / constrained_intra=0 / bframes=8 / b_pyramid=2 / b_adapt=2 / b_bias=0 / direct=3 / weightb=1 / open_gop=0 / weightp=2 / keyint=240 / keyint_min=24 / scenecut=40 / intra_refresh=0 / rc=2pass / mbtree=0 / bitrate=10300 / ratetol=1.0 / qcomp=0.60 / qpmin=0 / qpmax=69 / qpstep=4 / cplxblur=20.0 / qblur=0.5 / ip_ratio=1.40 / pb_ratio=1.30 / aq=1:1.00
Default : Yes
Forced : No

Audio #1
ID : 2
Format : AC-3
Format/Info : Audio Coding 3
Commercial name : Dolby Digital
Codec ID : A_AC3
Duration : 1 h 43 min
Bit rate mode : Constant
Bit rate : 384 kb/s
Channel(s) : 6 channels
Channel layout : L R C LFE Ls Rs
Sampling rate : 48.0 kHz
Frame rate : 31.250 FPS (1536 SPF)
Compression mode : Lossy
Stream size : 283 MiB (3%)
Title : Дубляж (iTunes)
Language : Russian
Service kind : Complete Main
Default : Yes
Forced : Yes

Audio #2
ID : 3
Format : AC-3
Format/Info : Audio Coding 3
Commercial name : Dolby Digital
Codec ID : A_AC3
Duration : 1 h 43 min
Bit rate mode : Constant
Bit rate : 640 kb/s
Channel(s) : 6 channels
Channel layout : L R C LFE Ls Rs
Sampling rate : 48.0 kHz
Frame rate : 31.250 FPS (1536 SPF)
Compression mode : Lossy
Stream size : 472 MiB (6%)
Title : Original
Language : English
Service kind : Complete Main
Default : No
Forced : No

Text
ID : 4
Format : UTF-8
Codec ID : S_TEXT/UTF8
Codec ID/Info : UTF-8 Plain Text
Duration : 1 h 41 min
Bit rate : 51 b/s
Count of elements : 1360
Stream size : 38.3 KiB (0%)
Language : English
Default : No
Forced : No

Menu
00:00:00.000 : :Chapter 1
00:06:58.713 : :Chapter 2
00:13:58.922 : :Chapter 3
00:23:11.047 : :Chapter 4
00:31:01.172 : :Chapter 5
00:38:56.838 : :Chapter 6
00:45:47.672 : :Chapter 7
00:53:28.630 : :Chapter 8
01:02:50.672 : :Chapter 9
01:12:42.172 : :Chapter 10
01:21:28.213 : :Chapter 11
01:30:36.713 : :Chapter 12





Скачать Мы – монстры 2 через торрент https://i116.fastpic.org/big/2022/0227/08/42990ac6afe8d0579154f6285c94d608.jpg Скачать, смотреть онлайн Мы – монстры 2 бесплатно в хорошем качестве Описание: Баба Яга и Горбун решили сыграть свадьбу! Семья Уишбон точно не пропустит такой праздник, так как теперь они родственники! Но как ... 10 10 13
Торрент: Зарегистрирован [2022-04-06 22:42] · скачан: 152 раз
Статус: √ проверено
Размер: 8.15 GB
Как cкачать? Как скачать Мы – монстры 2 через торрент | UTorrent

% Раздел Тема Автор DL S | L
3D Мультфильмы [ 12.8 GB ] Мы — монстры 2 в 3Д / Monster Family 2 3D | iTunes | 1080p serega768 Скачать
1 | 0
Зарубежные Мультфильмы (BDRip 1080p, 720p, Blu-ray, BD-Remux) [ 16.2 GB ] Мы – монстры 2 / Monster Family 2 | iTunes | BD Remux 1080p bober100 Скачать
1 | 0
Иностранные мультфильмы [ 720 MB ] Мы — монстры 2 / Monster Family 2 | iTunes" | DLRip, Дубляж "iTunes" coc900 Скачать
1 | 0
Иностранные мультфильмы [ 1.46 GB ] Мы – монстры 2 / Monster Family 2 | iTunes | BDRip bober100 Скачать
2 | 0

28-11-2019 20:33  


Отключить вcю реклaмy на сайте, в т.ч. и в плеере онлайн просмотра!

    Дорогой пользователь! Огромная просьба, поблагодарите релизера, оцените раздачу и оставьте свои комментарий, если Вы скачали Мы – монстры 2 через торрент бесплатно!!
    Комментировать посты могут только пользователи прошедшие не сложную регистрацию
    Показать сообщения:    


    Мы – монстры 2 через торрент
    Скачать бесплатно Мы – монстры 2
    Мы – монстры 2 скачать торрент
    Мы – монстры 2 смотреть онлайн
    Cкачать фильм Мы – монстры 2 бесплатно
    Мы – монстры 2 скачать торрент в хорошем качестве
    Мы – монстры 2 смотреть онлайн бесплатно в хорошем качестве
    Вы не можете начинать темы
    Вы не можете отвечать на сообщения
    Вы не можете редактировать свои сообщения
    Вы не можете удалять свои сообщения
    Вы не можете голосовать в опросах
    Вы не можете прикреплять файлы к сообщениям
    Вы можете скачивать файлы