Всегда рабочее зеркало без VPN и Proxy просто перед .vidak.icu напиши любое слово или цифру, Пример http://i5ez.vidak.icu

MVO

MVO

1 сезон

1

1 сезон

iTunes

1 сезон

13

1 сезон

Deluxe

pack

Рекомендуем

Repack

30

ВАЖНО

RePack

MK11

RePack

jed

RePack

fifa19

RePack

RDR2

RePack

NEED FOR SPEED™ PAYBACK

Кинопоиск HD

6 сезон

 Острые козырьки 6 сезон

Все сериалы

все сериалы на PB.wtf

RePack

FAR CRY 5
  
Magnet ссылка

King's Man: Начало / The King's Man (Мэттью Вон) [2021, Боевик, триллер, комедия, криминал, приключения, UHD BDRemux 2160p] DUB [iTunes] pb.wtf

King's Man: Начало через торрент pb.wtf

Раздают: 3 [ 0 KB/s ]
Размер: 51.89 GB | Добавлен: 5 мес. 4 д. назад | Торрент скачан:201 раз
Смотреть онлайн King's Man: Начало | Скачать    Ребята, помогите собрать деньги на оплату серверов!!!

04-03-2022 01:13 King's Man: Начало Скачать торрент  

King's Man: Начало
The King's Man

Год выпуска: 2021
Страна: Великобритания, США
Выпущено: 20th Century Studios, Marv Films, Marv Studios
Жанр: Боевик, триллер, комедия, криминал, приключения
Продолжительность: 02:09:05
Перевод: Дублированный | iTunes
Субтитры: Русские (Forced, 2 x full), английские

Режиссер: Мэттью Вон

rating

В ролях: Харрис Дикинсон, Даниэль Брюль, Рэйф Файнс, Аарон Тейлор-Джонсон, Рис Иванс, Джемма Артертон, Мэттью Гуд, Том Холландер, Бранка Катич, Стэнли Туччи

Описание: Kingsman - организация супершпионов, действующая на благо человечества вдали от любопытных глаз. И один из первых и самых талантливых оперативников в истории организации - Конрад, молодой и наглый сын герцога Оксфордского. Как и многие его друзья он мечтал служить на благо Англии, но в итоге оказался втянут в тайный мир шпионов и убийц.

Качество: UHD BDRemux 2160p
Формат: MKV

Видео: 3840x2160 at 23.976 fps, MPEG-H HEVC HDR Video ~ 48200 kbps avg
Аудио #01: 48 kHz, AC3, 5.1, 384 Kbps | iTunes | RUS |
Аудио #02: 48 kHz, TrueHD, 7.1, 7586 Kbps | Оригинал | ENG |
Аудио #02: 48 kHz, AC3, 5.1, 640 Kbps | Оригинал | ENG |
скриншот  скриншот  скриншот  скриншот  скриншот  скриншот  

General
Unique ID : 42286933925753206969170019929356265116 (0x1FD02ACF9C6DF1EEAC7473076D48669C)
Complete name : E:VideoThe.King's.Man.2021.BDREMUX.2160p.HDR.seleZen.mkv
Format : Matroska
Format version : Version 4
File size : 51.9 GiB
Duration : 2 h 10 min
Overall bit rate mode : Variable
Overall bit rate : 56.8 Mb/s
Movie name : The King's Man 2021 from seleZen
Encoded date : UTC 2022-03-03 21:53:58
Writing application : mkvmerge v59.0.0 ('Shining Star') 64-bit
Writing library : libebml v1.4.2 + libmatroska v1.6.4

Video
ID : 1
Format : HEVC
Format/Info : High Efficiency Video Coding
Format profile : Main [email protected]@High
HDR format : SMPTE ST 2086, HDR10 compatible
Codec ID : V_MPEGH/ISO/HEVC
Duration : 2 h 10 min
Bit rate : 48.2 Mb/s
Width : 3 840 pixels
Height : 2 160 pixels
Display aspect ratio : 16:9
Frame rate mode : Constant
Frame rate : 23.976 (24000/1001) FPS
Color space : YUV
Chroma subsampling : 4:2:0 (Type 2)
Bit depth : 10 bits
Bits/(Pixel*Frame) : 0.242
Stream size : 44.0 GiB (85%)
Language : English
Default : Yes
Forced : No
Color range : Limited
Color primaries : BT.2020
Transfer characteristics : PQ
Matrix coefficients : BT.2020 non-constant
Mastering display color pri : Display P3
Mastering display luminance : min: 0.0050 cd/m2, max: 1000 cd/m2
Maximum Content Light Level : 0 cd/m2
Maximum Frame-Average Light : 0 cd/m2

Audio #1
ID : 2
Format : AC-3
Format/Info : Audio Coding 3
Commercial name : Dolby Digital
Codec ID : A_AC3
Duration : 2 h 10 min
Bit rate mode : Constant
Bit rate : 384 kb/s
Channel(s) : 6 channels
Channel layout : L R C LFE Ls Rs
Sampling rate : 48.0 kHz
Frame rate : 31.250 FPS (1536 SPF)
Compression mode : Lossy
Stream size : 359 MiB (1%)
Title : Dub [iTunes]
Language : Russian
Service kind : Complete Main
Default : Yes
Forced : Yes

Audio #2
ID : 3
Format : MLP FBA 16-ch
Format/Info : Meridian Lossless Packing FBA with 16-channel presentation
Commercial name : Dolby TrueHD with Dolby Atmos
Codec ID : A_TRUEHD
Duration : 2 h 10 min
Bit rate mode : Variable
Bit rate : 7 586 kb/s
Maximum bit rate : 12.5 Mb/s
Channel(s) : 8 channels
Channel layout : L R C LFE Ls Rs Lb Rb
Sampling rate : 48.0 kHz
Frame rate : 1 200.000 FPS (40 SPF)
Compression mode : Lossless
Stream size : 6.92 GiB (13%)
Title : Original
Language : English
Default : No
Forced : No
Number of dynamic objects : 13
Bed channel count : 1 channel
Bed channel configuration : LFE

Audio #3
ID : 4
Format : AC-3
Format/Info : Audio Coding 3
Commercial name : Dolby Digital
Codec ID : A_AC3
Duration : 2 h 10 min
Bit rate mode : Constant
Bit rate : 640 kb/s
Channel(s) : 6 channels
Channel layout : L R C LFE Ls Rs
Sampling rate : 48.0 kHz
Frame rate : 31.250 FPS (1536 SPF)
Compression mode : Lossy
Stream size : 598 MiB (1%)
Service kind : Complete Main
Default : No
Forced : No

Text #1
ID : 5
Format : UTF-8
Codec ID : S_TEXT/UTF8
Codec ID/Info : UTF-8 Plain Text
Duration : 2 h 3 min
Bit rate : 1 b/s
Count of elements : 19
Stream size : 946 Bytes (0%)
Title : Forced [HDRezka Studio]
Language : Russian
Default : No
Forced : No

Text #2
ID : 6
Format : UTF-8
Codec ID : S_TEXT/UTF8
Codec ID/Info : UTF-8 Plain Text
Duration : 2 h 9 min
Bit rate : 71 b/s
Count of elements : 1315
Stream size : 67.3 KiB (0%)
Title : Full [iTunes]
Language : Russian
Default : No
Forced : No

Text #3
ID : 7
Format : UTF-8
Codec ID : S_TEXT/UTF8
Codec ID/Info : UTF-8 Plain Text
Duration : 2 h 3 min
Bit rate : 81 b/s
Count of elements : 1338
Stream size : 73.9 KiB (0%)
Title : Full [Focs]
Language : Russian
Default : No
Forced : No

Text #4
ID : 8
Format : UTF-8
Codec ID : S_TEXT/UTF8
Codec ID/Info : UTF-8 Plain Text
Duration : 2 h 3 min
Bit rate : 47 b/s
Count of elements : 1484
Stream size : 42.9 KiB (0%)
Title : Full
Language : English
Default : No
Forced : No

Text #5
ID : 9
Format : UTF-8
Codec ID : S_TEXT/UTF8
Codec ID/Info : UTF-8 Plain Text
Duration : 2 h 3 min
Bit rate : 53 b/s
Count of elements : 1723
Stream size : 47.8 KiB (0%)
Title : SDH
Language : English
Default : No
Forced : No

Menu
00:00:00.000 : Chapter 01
00:07:23.902 : Chapter 02
00:07:23.985 : Chapter 03
00:11:07.292 : Chapter 04
00:11:07.375 : Chapter 05
00:14:37.710 : Chapter 06
00:14:37.794 : Chapter 07
00:19:03.100 : Chapter 08
00:19:03.184 : Chapter 09
00:20:50.207 : Chapter 10
00:20:50.291 : Chapter 11
00:28:24.202 : Chapter 12
00:28:24.286 : Chapter 13
00:31:09.201 : Chapter 14
00:31:09.284 : Chapter 15
00:34:30.777 : Chapter 16
00:34:30.860 : Chapter 17
00:38:11.206 : Chapter 18
00:38:11.289 : Chapter 19
00:42:02.770 : Chapter 20
00:42:02.854 : Chapter 21
00:47:19.295 : Chapter 22
00:47:19.378 : Chapter 23
00:58:30.841 : Chapter 24
00:58:30.924 : Chapter 25
00:59:12.716 : Chapter 26
00:59:12.799 : Chapter 27
01:02:24.824 : Chapter 28
01:02:24.908 : Chapter 29
01:05:22.502 : Chapter 30
01:05:22.585 : Chapter 31
01:07:16.366 : Chapter 32
01:07:16.449 : Chapter 33
01:09:08.770 : Chapter 34
01:09:08.853 : Chapter 35
01:13:53.304 : Chapter 36
01:13:53.387 : Chapter 37
01:26:49.913 : Chapter 38
01:26:49.996 : Chapter 39
01:33:11.252 : Chapter 40
01:33:11.336 : Chapter 41
01:36:38.918 : Chapter 42
01:36:39.002 : Chapter 43
01:39:38.931 : Chapter 44
01:39:39.015 : Chapter 45
01:44:25.593 : Chapter 46
01:44:25.676 : Chapter 47
01:48:28.877 : Chapter 48
01:48:28.961 : Chapter 49
01:58:04.452 : Chapter 50
01:58:04.536 : Chapter 51
02:01:58.770 : Chapter 52
02:01:58.853 : Chapter 53
02:10:38.039 : Chapter 54
02:10:38.122 : Chapter 55

pb.wtf



Скачать King's Man: Начало через торрент https://d.radikal.ru/d00/2203/d8/8eb0ec52938c.jpg Скачать, смотреть онлайн King's Man: Начало бесплантно в хорошем качестве Описание: Kingsman - организация супершпионов, действующая на благо человечества вдали от любопытных глаз. И один из первых и самых ... 10 10 8
Торрент: Зарегистрирован [2022-03-04 01:13] · скачан: 201 раз
Статус: √ проверено
Размер: 51.89 GB
Как cкачать? Как скачать King's Man: Начало через торрент | UTorrent

28-11-2019 20:33  

Отключить вcю реклaмy на сайте

05-03-2022 12:52 King's Man: Начало Скачать торрент  

Спасибо огромное за труды!pb.wtf



    Дорогой пользователь! Огромная просьба, поблагодарите релизера, оцените раздачу и оставьте свои комментарий, если Вы скачали King's Man: Начало через торрент бесплатно!
    Комментировать посты могут только пользователи прошедшие не сложную регистрацию
    Показать сообщения:    

    King's Man: Начало через торрент
    Скачать бесплатно King's Man: Начало
    King's Man: Начало скачать торрент
    King's Man: Начало смотреть онлайн
    Cкачать фильм King's Man: Начало бесплатно
    King's Man: Начало скачать торрент в хорошем качестве
    King's Man: Начало смотреть онлайн бесплатно в хорошем качестве


    Вы не можете начинать темы
    Вы не можете отвечать на сообщения
    Вы не можете редактировать свои сообщения
    Вы не можете удалять свои сообщения
    Вы не можете голосовать в опросах
    Вы не можете прикреплять файлы к сообщениям
    Вы можете скачивать файлы