Всегда рабочее зеркало без VPN и Proxy просто перед .vidak.icu напиши любое слово или цифру, Пример http://e5lr.vidak.icu

MVO

Лицензия

1 сезон

1

1 сезон

iTunes

1 сезон

13

1 сезон

Deluxe

pack

Рекомендуем

Пиратка

30

ВАЖНО

RePack

MK11

RePack

jed

RePack

fifa19

RePack

RDR2

RePack

NEED FOR SPEED™ PAYBACK

Кинопоиск HD

6 сезон

 Острые козырьки 6 сезон

Все сериалы

все сериалы на PB.wtf

RePack

FAR CRY 5
  
Magnet ссылка

Матрица: Воскрешение / The Matrix Resurrections (Лана Вачовски) [2021, Фантастика, боевик, UHD BDRemux 2160p, (Dolby Vision Profile 8)] DUB [Кинопоиск HD] +2xMVO [HDRezka Studio, Jaskier] (rus, ukr) +AVO [Д. Есарев] pb.wtf

Матрица: Воскрешение через торрент pb.wtf

Раздают: 1 [ 0 KB/s ]
Размер: 69.58 GB | Добавлен: 4 мес. назад | Торрент скачан:61 раз
Смотреть онлайн Матрица: Воскрешение | Скачать    Ребята, помогите собрать деньги на оплату серверов!!!

04-03-2022 01:19 Матрица: Воскрешение Скачать торрент  

Матрица: Воскрешение
The Matrix Resurrections

Год выпуска: 2021
Страна: США
Студия: NPV Entertainment, Silver Pictures, Village Roadshow Pictures, Warner Bros.
Жанр: Фантастика, боевик
Продолжительность: 02:27:54
Перевод(ы):
#1: Дублированный | Кинопоиск HD
#2: Профессиональный многоголосый | HDRezka Studio
#3: Профессиональный многоголосый | Jaskier
#4: Авторский | Д. Есарев
Субтитры: Русские (Forced, full, SDH), украинский (Forced), английские

Режиссер: Лана Вачовски

rating

В ролях: Киану Ривз, Кэрри-Энн Мосс, Кристина Риччи, Джессика Хенвик, Дэниэл Бернхард, Джонатан Грофф, Приянка Чопра Джонас, Яхья Абдул-Матин II, Эллен Холлман, Джада Пинкетт Смит

Описание: Что делать, если окружающий мир кажется ловушкой, а самые фантастические сны больше похожи на настоящую жизнь, чем повседневная реальность? Хочешь найти правду? Следуй за белым кроликом, чтобы вернуться туда, где все началось... Обратно в Матрицу. Действие фильма «Матрица: Воскрешение» разворачивается спустя 20 лет после событий, показанных в третьей части. Отныне Нео живёт самой обычной жизнью, скрывая свою настоящую личность. Теперь его зовут Томас А. Андерсон. Нео старательно маскируется, ничем не отличаясь от среднестатистического обитателя Сан-Франциско.

Качество: UHD BDRemux 2160p | Dolby Vision Profile 8
Формат: MKV

Видео: 3840x2160 at 23.976 fps, MPEG-H HEVC HDR, Dolby Vision Video ~ 60808 kbps avg
Аудио #01: 48 kHz, E-AC3, 5.1, 448 Kbps | Дублированный | Кинопоиск HD | RUS |
Аудио #02: 48 kHz, AC3, 5.1, 448 Kbps | Дублированный | Кинопоиск HD | RUS |
Аудио #03: 48 kHz, AC3, 5.1, 448 Kbps | Профессиональный многоголосый | HDRezka Studio | RUS |
Аудио #04: 48 kHz, AC3, 5.1, 448 Kbps | Профессиональный многоголосый | Jaskier | RUS |
Аудио #05: 48 kHz, AC3, 5.1, 640 Kbps | Авторский | Д. Есарев | RUS |
Аудио #06: 48 kHz, AC3, 5.1, 384 Kbps | Профессиональный многоголосый | HDRezka Studio | UKR |
Аудио #07: 48 kHz, TrueHD, 7.1, 3140 Kbps | Оригинал | ENG |
Аудио #08: 48 kHz, AC3, 5.1, 448 Kbps | Оригинал | ENG |
скриншот  скриншот  скриншот  скриншот  скриншот  

General
Unique ID : 311889460596516400617102932033366718787 (0xEAA3B9A370E3D3151FD40C2782D8F943)
Complete name : E:VideoThe.Matrix.Resurrections.2021.BDREMUX.2160p.HDR.DVP8.seleZen.mkv
Format : Matroska
Format version : Version 4
File size : 69.6 GiB
Duration : 2 h 27 min
Overall bit rate mode : Variable
Overall bit rate : 67.3 Mb/s
Movie name : The Matrix Resurrections 2021 from seleZen
Encoded date : UTC 2022-03-03 21:12:11
Writing application : mkvmerge v59.0.0 ('Shining Star') 64-bit
Writing library : libebml v1.4.2 + libmatroska v1.6.4

Video
ID : 1
ID in the original source m : 4117 (0x1015)
Format : HEVC
Format/Info : High Efficiency Video Coding
Format profile : Main 10@L5.1@High
HDR format : Dolby Vision, Version 1.0, dvhe.08.06, BL+RPU, Blu-ray compatible / SMPTE ST 2086, HDR10 compatible
Codec ID : V_MPEGH/ISO/HEVC
Duration : 2 h 27 min
Bit rate : 60.8 Mb/s
Width : 3 840 pixels
Height : 2 160 pixels
Display aspect ratio : 16:9
Frame rate mode : Constant
Frame rate : 23.976 (24000/1001) FPS
Color space : YUV
Chroma subsampling : 4:2:0 (Type 2)
Bit depth : 10 bits
Bits/(Pixel*Frame) : 0.306
Stream size : 62.9 GiB (90%)
Language : English
Default : No
Forced : No
Color range : Limited
Color primaries : BT.2020
Transfer characteristics : PQ
Matrix coefficients : BT.2020 non-constant
Mastering display color pri : Display P3
Mastering display luminance : min: 0.0050 cd/m2, max: 4000 cd/m2
Maximum Content Light Level : 1044 cd/m2
Maximum Frame-Average Light : 648 cd/m2
Original source medium : Blu-ray

Audio #1
ID : 2
Format : E-AC-3
Format/Info : Enhanced AC-3
Commercial name : Dolby Digital Plus
Codec ID : A_EAC3
Duration : 2 h 27 min
Bit rate mode : Constant
Bit rate : 448 kb/s
Channel(s) : 6 channels
Channel layout : L R C LFE Ls Rs
Sampling rate : 48.0 kHz
Frame rate : 31.250 FPS (1536 SPF)
Compression mode : Lossy
Stream size : 474 MiB (1%)
Title : Dub
Language : Russian
Service kind : Complete Main
Default : Yes
Forced : Yes

Audio #2
ID : 3
Format : AC-3
Format/Info : Audio Coding 3
Commercial name : Dolby Digital
Codec ID : A_AC3
Duration : 2 h 27 min
Bit rate mode : Constant
Bit rate : 448 kb/s
Channel(s) : 6 channels
Channel layout : L R C LFE Ls Rs
Sampling rate : 48.0 kHz
Frame rate : 31.250 FPS (1536 SPF)
Compression mode : Lossy
Stream size : 474 MiB (1%)
Title : Dub
Language : Russian
Service kind : Complete Main
Default : No
Forced : No

Audio #3
ID : 4
Format : AC-3
Format/Info : Audio Coding 3
Commercial name : Dolby Digital
Codec ID : A_AC3
Duration : 2 h 27 min
Bit rate mode : Constant
Bit rate : 448 kb/s
Channel(s) : 6 channels
Channel layout : L R C LFE Ls Rs
Sampling rate : 48.0 kHz
Frame rate : 31.250 FPS (1536 SPF)
Compression mode : Lossy
Stream size : 474 MiB (1%)
Title : MVO [HDRezka Studio]
Language : Russian
Service kind : Complete Main
Default : No
Forced : No

Audio #4
ID : 5
Format : AC-3
Format/Info : Audio Coding 3
Commercial name : Dolby Digital
Codec ID : A_AC3
Duration : 2 h 27 min
Bit rate mode : Constant
Bit rate : 448 kb/s
Channel(s) : 6 channels
Channel layout : L R C LFE Ls Rs
Sampling rate : 48.0 kHz
Frame rate : 31.250 FPS (1536 SPF)
Compression mode : Lossy
Stream size : 474 MiB (1%)
Title : MVO [Jaskier]
Language : Russian
Service kind : Complete Main
Default : No
Forced : No

Audio #5
ID : 6
Format : AC-3
Format/Info : Audio Coding 3
Commercial name : Dolby Digital
Codec ID : A_AC3
Duration : 2 h 27 min
Bit rate mode : Constant
Bit rate : 640 kb/s
Channel(s) : 6 channels
Channel layout : L R C LFE Ls Rs
Sampling rate : 48.0 kHz
Frame rate : 31.250 FPS (1536 SPF)
Compression mode : Lossy
Stream size : 677 MiB (1%)
Title : AVO [Yesarev]
Language : Russian
Service kind : Complete Main
Default : No
Forced : No

Audio #6
ID : 7
Format : AC-3
Format/Info : Audio Coding 3
Commercial name : Dolby Digital
Codec ID : A_AC3
Duration : 2 h 27 min
Bit rate mode : Constant
Bit rate : 384 kb/s
Channel(s) : 6 channels
Channel layout : L R C LFE Ls Rs
Sampling rate : 48.0 kHz
Frame rate : 31.250 FPS (1536 SPF)
Compression mode : Lossy
Stream size : 406 MiB (1%)
Title : MVO [HDRezka & DniproFilm]
Language : Ukrainian
Service kind : Complete Main
Default : No
Forced : No

Audio #7
ID : 8
Format : MLP FBA 16-ch
Format/Info : Meridian Lossless Packing FBA with 16-channel presentation
Commercial name : Dolby TrueHD with Dolby Atmos
Codec ID : A_TRUEHD
Duration : 2 h 27 min
Bit rate mode : Variable
Bit rate : 3 140 kb/s
Maximum bit rate : 5 967 kb/s
Channel(s) : 8 channels
Channel layout : L R C LFE Ls Rs Lb Rb
Sampling rate : 48.0 kHz
Frame rate : 1 200.000 FPS (40 SPF)
Compression mode : Lossless
Stream size : 3.25 GiB (5%)
Title : Original
Language : English
Default : No
Forced : No
Number of dynamic objects : 11
Bed channel count : 1 channel
Bed channel configuration : LFE

Audio #8
ID : 9
Format : AC-3
Format/Info : Audio Coding 3
Commercial name : Dolby Digital
Format settings : Dolby Surround EX
Codec ID : A_AC3
Duration : 2 h 27 min
Bit rate mode : Constant
Bit rate : 448 kb/s
Channel(s) : 6 channels
Channel layout : L R C LFE Ls Rs
Sampling rate : 48.0 kHz
Frame rate : 31.250 FPS (1536 SPF)
Compression mode : Lossy
Stream size : 474 MiB (1%)
Language : English
Service kind : Complete Main
Default : No
Forced : No

Text #1
ID : 10
Format : UTF-8
Codec ID : S_TEXT/UTF8
Codec ID/Info : UTF-8 Plain Text
Duration : 2 h 24 min
Bit rate : 0 b/s
Count of elements : 11
Stream size : 386 Bytes (0%)
Title : Forced
Language : Russian
Default : Yes
Forced : Yes

Text #2
ID : 11
Format : UTF-8
Codec ID : S_TEXT/UTF8
Codec ID/Info : UTF-8 Plain Text
Duration : 2 h 26 min
Bit rate : 76 b/s
Count of elements : 1688
Stream size : 82.5 KiB (0%)
Title : Full
Language : Russian
Default : No
Forced : No

Text #3
ID : 12
Format : UTF-8
Codec ID : S_TEXT/UTF8
Codec ID/Info : UTF-8 Plain Text
Duration : 2 h 27 min
Bit rate : 96 b/s
Count of elements : 2189
Stream size : 104 KiB (0%)
Title : SDH
Language : Russian
Default : No
Forced : No

Text #4
ID : 13
Format : UTF-8
Codec ID : S_TEXT/UTF8
Codec ID/Info : UTF-8 Plain Text
Duration : 54 min 7 s
Bit rate : 2 b/s
Count of elements : 17
Stream size : 878 Bytes (0%)
Title : Forced
Language : Ukrainian
Default : No
Forced : No

Text #5
ID : 14
Format : UTF-8
Codec ID : S_TEXT/UTF8
Codec ID/Info : UTF-8 Plain Text
Duration : 2 h 27 min
Bit rate : 51 b/s
Count of elements : 2185
Stream size : 55.7 KiB (0%)
Title : Full
Language : English
Default : No
Forced : No

Text #6
ID : 15
Format : UTF-8
Codec ID : S_TEXT/UTF8
Codec ID/Info : UTF-8 Plain Text
Duration : 2 h 27 min
Bit rate : 51 b/s
Count of elements : 2188
Stream size : 55.8 KiB (0%)
Title : SDH
Language : English
Default : No
Forced : No

Menu
00:00:00.000 : Глава 01
00:04:06.079 : Глава 02
00:13:44.782 : Глава 03
00:22:39.358 : Глава 04
00:30:47.637 : Глава 05
00:39:00.630 : Глава 06
00:47:42.485 : Глава 07
00:54:20.799 : Глава 08
01:03:01.194 : Глава 09
01:11:51.557 : Глава 10
01:20:40.294 : Глава 11
01:30:30.258 : Глава 12
01:39:38.681 : Глава 13
01:48:59.867 : Глава 14
01:53:17.874 : Глава 15
02:02:57.620 : Глава 16
02:12:33.445 : Глава 17
02:16:40.901 : Глава 18

pb.wtf



Скачать Матрица: Воскрешение через торрент https://c.radikal.ru/c43/2203/e6/4cd6c89d78d0.jpg Скачать, смотреть онлайн Матрица: Воскрешение бесплантно в хорошем качестве Описание: Что делать, если окружающий мир кажется ловушкой, а самые фантастические сны больше похожи на настоящую жизнь, чем повседневная ... 10 10 4
Торрент: Зарегистрирован [2022-03-04 01:19] · скачан: 61 раз
Статус: √ проверено
Размер: 69.58 GB
Как cкачать? Как скачать Матрица: Воскрешение через торрент | UTorrent

% Раздел Тема Автор DL S | L
Ultra HD (UHD: 2K, 4K, 8K) — видео сверхвысокой чёткости [ 73.42 GB ] Матрица: Воскрешение / The Matrix Resurrections [2021 UHD BDRemux 2160p ] DUB [Кинопоиск HD] +2xMVO [HDRezka Studio Jaskier] +AVO [Д. Есарев] bober100 Скачать
1 | 0
Фильмы (Blu-ray, BD-Remux, HDDVD) [ 28.21 GB ] Матрица: Воскрешение / The Matrix Resurrections [2021 BD Remux 1080p] DUB [Кинопоиск HD] +2xMVO [HDRezka Studio Jaskier] +AVO [Д. Есарев] bober100 Скачать
1 | 0
Фильмы [HD 720p, 1080p] (Хороший звук DUB, MVO) [ 15.82 GB ] Матрица: Воскрешение / The Matrix Resurrections [2021 BDRip 1080p] DUB [Кинопоиск HD] +2xMVO [HDRezka Studio Jaskier] +AVO [Д. Есарев] bober100 Скачать
4 | 0
Ultra HD (UHD: 2K, 4K, 8K) — видео сверхвысокой чёткости [ 21.19 GB ] Матрица: Воскрешение / The Matrix Resurrections [2021 UHD WEB-DL-HEVC 2160p] 2xMVO [HDRezka Studio Jaskier] +AVO [Д. Есарев] bober100 Скачать
8 | 0
Фильмы [HD 720p, 1080p] (Хороший звук DUB, MVO) [ 7.46 GB ] Матрица: Воскрешение / The Matrix Resurrections [2021 BDRip 720p] DUB [Кинопоиск HD] +2xMVO [HDRezka Studio Jaskier] +AVO [Д. Есарев] bober100 Скачать
1 | 0

28-11-2019 20:33  

Отключить всю рекламу на сайте

    Дорогой пользователь! Огромная просьба, поблагодарите релизера, оцените раздачу и оставьте свои комментарий, если Вы скачали Матрица: Воскрешение через торрент бесплатно!
    Комментировать посты могут только пользователи прошедшие не сложную регистрацию
    Показать сообщения:    

    Матрица: Воскрешение через торрент
    Скачать бесплатно Матрица: Воскрешение
    Матрица: Воскрешение скачать торрент
    Матрица: Воскрешение смотреть онлайн
    Cкачать фильм Матрица: Воскрешение бесплатно
    Матрица: Воскрешение скачать торрент в хорошем качестве
    Матрица: Воскрешение смотреть онлайн бесплатно в хорошем качестве


    Вы не можете начинать темы
    Вы не можете отвечать на сообщения
    Вы не можете редактировать свои сообщения
    Вы не можете удалять свои сообщения
    Вы не можете голосовать в опросах
    Вы не можете прикреплять файлы к сообщениям
    Вы можете скачивать файлы