Всегда рабочее зеркало без VPN и Proxy просто перед .vidak.icu напиши любое слово или цифру, Пример http://xkdz.vidak.icu

MVO

Лицензия

1 сезон

1

1 сезон

iTunes

1 сезон

13

1 сезон

Deluxe

pack

Рекомендуем

Пиратка

30

ВАЖНО

RePack

MK11

RePack

jed

RePack

fifa19

RePack

RDR2

RePack

NEED FOR SPEED™ PAYBACK

Кинопоиск HD

6 сезон

 Острые козырьки 6 сезон

Все сериалы

все сериалы на PB.wtf

RePack

FAR CRY 5
  
Magnet ссылка

Параллельные матери / Madres paralelas / Parallel Mothers (Педро Альмодовар) [2021, Драма, мелодрама, BDRip 720p] DUB [iTunes] pb.wtf

Параллельные матери через торрент pb.wtf

Размер: 6.01 GB | Добавлен: 3 мес. 30 д. назад | Торрент скачан:36 раз
Смотреть онлайн Параллельные матери | Скачать    Ребята, помогите собрать деньги на оплату серверов!!!

05-03-2022 02:51 Параллельные матери Скачать торрент  

Параллельные матери
Madres paralelas | Parallel Mothers

Год выпуска: 2021
Страна: Испания
Студия: El Deseo S.A., Pathe, Radio Television Espanola (RTVE), Remotamente Films, Sony Pictures Entertainment (SPE)
Жанр: Драма, мелодрама
Продолжительность: 02:02:39
Перевод: Дублированный | iTunes
Субтитры: Русские (Full), английские

Режиссер: Педро Альмодовар

rating

В ролях: Пенелопа Крус, Росси де Пальма, Айтана Санчес-Хихон, Даниэла Сантьяго, Милена Смит, Хульета Серрано, Хосе Хавьер Домингес, Исраэль Элехальде, Кармен Флорес

Описание: Судьбы двух женщин пересекаются в родильном отделении. Дженис — успешный фотограф, Ана — запутавшийся подросток. Обе женщины одиноки, а обе беременности не были запланированы. Но случайная встреча оборачивается тесной связью, которая безвозвратно изменит их жизни навсегда.

Качество: BDRip 720p
Формат: MKV

Видео: MPEG-4 AVC, 1280x692, 6000 Kbit/s, 24.000 fps
Аудио #01: 48 kHz, AC3, 5.1, 384 Kbps | iTunes | RUS |
Аудио #02: 48 kHz, AC3, 5.1, 640 Kbps | Оригинал | SPA |
скриншот  скриншот  скриншот  скриншот  

General
Unique ID : 85729802992072943274493950740030540773 (0x407EF59FE249482FFE697C3BBC77CBE5)
Complete name : E:VideoMadres.Paralelas.2021.BDRip.720p.seleZen.mkv
Format : Matroska
Format version : Version 4
File size : 6.01 GiB
Duration : 2 h 2 min
Overall bit rate : 7 013 kb/s
Movie name : Madres paralelas AKA Parallel Mothers 2021 from seleZen
Encoded date : UTC 2022-03-04 20:48:26
Writing application : mkvmerge v59.0.0 ('Shining Star') 64-bit
Writing library : libebml v1.4.2 + libmatroska v1.6.4

Video
ID : 1
Format : AVC
Format/Info : Advanced Video Codec
Format profile : High@L4.1
Format settings : CABAC / 9 Ref Frames
Format settings, CABAC : Yes
Format settings, Reference : 9 frames
Codec ID : V_MPEG4/ISO/AVC
Duration : 2 h 2 min
Bit rate : 6 000 kb/s
Width : 1 280 pixels
Height : 692 pixels
Display aspect ratio : 1.85:1
Frame rate mode : Constant
Frame rate : 24.000 FPS
Color space : YUV
Chroma subsampling : 4:2:0
Bit depth : 8 bits
Scan type : Progressive
Bits/(Pixel*Frame) : 0.282
Stream size : 5.13 GiB (85%)
Writing library : x264 core 146 -from seleZen
Encoding settings : cabac=1 / ref=9 / deblock=1:-2:-2 / analyse=0x3:0x133 / me=umh / subme=11 / psy=1 / psy_rd=1.02:0.01 / mixed_ref=1 / me_range=32 / chroma_me=1 / trellis=2 / 8x8dct=1 / cqm=0 / deadzone=21,11 / fast_pskip=0 / chroma_qp_offset=-3 / threads=48 / lookahead_threads=5 / sliced_threads=0 / nr=0 / decimate=0 / interlaced=0 / bluray_compat=0 / constrained_intra=0 / bframes=8 / b_pyramid=2 / b_adapt=2 / b_bias=0 / direct=3 / weightb=1 / open_gop=0 / weightp=2 / keyint=240 / keyint_min=24 / scenecut=40 / intra_refresh=0 / rc_lookahead=50 / rc=2pass / mbtree=0 / bitrate=6000 / ratetol=1.0 / qcomp=0.60 / qpmin=0 / qpmax=51 / qpstep=4 / cplxblur=20.0 / qblur=0.5 / vbv_maxrate=50000 / vbv_bufsize=62500 / nal_hrd=none / filler=0 / ip_ratio=1.40 / pb_ratio=1.30 / aq=3:0.80
Language : English
Default : Yes
Forced : No

Audio #1
ID : 2
Format : AC-3
Format/Info : Audio Coding 3
Commercial name : Dolby Digital
Codec ID : A_AC3
Duration : 2 h 2 min
Bit rate mode : Constant
Bit rate : 384 kb/s
Channel(s) : 6 channels
Channel layout : L R C LFE Ls Rs
Sampling rate : 48.0 kHz
Frame rate : 31.250 FPS (1536 SPF)
Compression mode : Lossy
Stream size : 337 MiB (5%)
Title : iTunes
Language : Russian
Service kind : Complete Main
Default : Yes
Forced : Yes

Audio #2
ID : 3
Format : AC-3
Format/Info : Audio Coding 3
Commercial name : Dolby Digital
Codec ID : A_AC3
Duration : 2 h 2 min
Bit rate mode : Constant
Bit rate : 640 kb/s
Channel(s) : 6 channels
Channel layout : L R C LFE Ls Rs
Sampling rate : 48.0 kHz
Frame rate : 31.250 FPS (1536 SPF)
Compression mode : Lossy
Stream size : 562 MiB (9%)
Title : Original
Language : Spanish
Service kind : Complete Main
Default : No
Forced : No

Text #1
ID : 4
Format : UTF-8
Codec ID : S_TEXT/UTF8
Codec ID/Info : UTF-8 Plain Text
Duration : 1 h 29 min
Bit rate : 1 b/s
Count of elements : 15
Stream size : 1.26 KiB (0%)
Title : Forced
Language : Russian
Default : Yes
Forced : Yes

Text #2
ID : 5
Format : UTF-8
Codec ID : S_TEXT/UTF8
Codec ID/Info : UTF-8 Plain Text
Duration : 1 h 56 min
Bit rate : 96 b/s
Count of elements : 1376
Stream size : 82.2 KiB (0%)
Title : Full
Language : Russian
Default : No
Forced : No

Text #3
ID : 6
Format : UTF-8
Codec ID : S_TEXT/UTF8
Codec ID/Info : UTF-8 Plain Text
Duration : 1 h 57 min
Bit rate : 54 b/s
Count of elements : 1668
Stream size : 46.9 KiB (0%)
Title : Full
Language : English
Default : No
Forced : No

Menu
00:00:00.000 : :Chapter 01
00:10:12.000 : :Chapter 02
00:20:12.917 : :Chapter 03
00:31:32.292 : :Chapter 04
00:39:56.333 : :Chapter 05
00:51:03.833 : :Chapter 06
01:01:37.167 : :Chapter 07
01:12:11.042 : :Chapter 08
01:21:16.292 : :Chapter 09
01:31:51.875 : :Chapter 10
01:41:13.417 : :Chapter 11
01:52:59.292 : :Chapter 12

pb.wtf



Скачать Параллельные матери через торрент https://c.radikal.ru/c23/2203/2d/d0542958b869.jpg Скачать, смотреть онлайн Параллельные матери бесплантно в хорошем качестве Описание: Судьбы двух женщин пересекаются в родильном отделении. Дженис — успешный фотограф, Ана — запутавшийся подросток. Обе женщины ... 10 10 3
Торрент: Зарегистрирован [2022-03-05 02:51] · скачан: 36 раз
Статус: √ проверено
Размер: 6.01 GB
Как cкачать? Как скачать Параллельные матери через торрент | UTorrent

% Раздел Тема Автор DL S | L
Фильмы [HD 720p, 1080p] (Хороший звук DUB, MVO) [ 8.63 GB ] Параллельные матери / Madres paralelas / Parallel Mothers [2021 BDRip 1080p] от Generalfilm White Smoke Скачать
1 | 0
Фильмы 2021 [DVDrip, WEB-DLRip, HDrip] (DUB, MVO) [ 746 MB ] Параллельные матери / Madres paralelas / Parallel Mothers [2021 BDRip] bober100 Скачать
2 | 0
Фильмы 2021 [DVDrip, WEB-DLRip, HDrip] (DUB, MVO) [ 1.91 GB ] Параллельные матери / Madres paralelas / Parallel Mothers [2021 BDRip-AVC] от ExKinoRay Lithuania Скачать
2 | 0
Фильмы 2021 [DVDrip, WEB-DLRip, HDrip] (DUB, MVO) [ 2.14 GB ] Параллельные матери / Madres paralelas / Parallel Mothers [2021 BDRip] bober100 Скачать
1 | 0
Фильмы 2021 [DVDrip, WEB-DLRip, HDrip] (DUB, MVO) [ 1.46 GB ] Параллельные матери / Madres paralelas / Parallel Mothers [2021 BDRip] bober100 Скачать
2 | 0
Фильмы (Blu-ray, BD-Remux, HDDVD) [ 27.6 GB ] Параллельные матери / Madres paralelas / Parallel Mothers [2021 BD Remux 1080p] bober100 Скачать
1 | 0
Фильмы [HD 720p, 1080p] (Хороший звук DUB, MVO) [ 12 GB ] Параллельные матери / Madres paralelas / Parallel Mothers [2021 BDRip 1080p] bober100 Скачать
1 | 0

28-11-2019 20:33  

Отключить всю рекламу на сайте

    Дорогой пользователь! Огромная просьба, поблагодарите релизера, оцените раздачу и оставьте свои комментарий, если Вы скачали Параллельные матери через торрент бесплатно!
    Комментировать посты могут только пользователи прошедшие не сложную регистрацию
    Показать сообщения:    

    Параллельные матери через торрент
    Скачать бесплатно Параллельные матери
    Параллельные матери скачать торрент
    Параллельные матери смотреть онлайн
    Cкачать фильм Параллельные матери бесплатно
    Параллельные матери скачать торрент в хорошем качестве
    Параллельные матери смотреть онлайн бесплатно в хорошем качестве


    Вы не можете начинать темы
    Вы не можете отвечать на сообщения
    Вы не можете редактировать свои сообщения
    Вы не можете удалять свои сообщения
    Вы не можете голосовать в опросах
    Вы не можете прикреплять файлы к сообщениям
    Вы можете скачивать файлы