Всегда рабочее зеркало без VPN и Proxy просто перед .vidak.icu напиши любое слово или цифру, Пример http://cov8.vidak.icu

MVO

Лицензия

1 сезон

1

1 сезон

iTunes

1 сезон

13

1 сезон

Deluxe

pack

Рекомендуем

Пиратка

30

ВАЖНО

RePack

MK11

RePack

jed

RePack

fifa19

RePack

RDR2

RePack

NEED FOR SPEED™ PAYBACK

Кинопоиск HD

6 сезон

 Острые козырьки 6 сезон

Все сериалы

все сериалы на PB.wtf

RePack

FAR CRY 5
  
Magnet ссылка

Параллельные матери / Madres paralelas / Parallel Mothers (Педро Альмодовар) [2021, Драма, мелодрама, BD Remux 1080p] DUB [iTunes] pb.wtf

Параллельные матери через торрент pb.wtf

Размер: 27.6 GB | Добавлен: 3 мес. 27 д. назад | Торрент скачан:28 раз
Смотреть онлайн Параллельные матери | Скачать    Ребята, помогите собрать деньги на оплату серверов!!!

05-03-2022 02:54 Параллельные матери Скачать торрент  

Параллельные матери
Madres paralelas | Parallel Mothers

Год выпуска: 2021
Страна: Испания
Студия: El Deseo S.A., Pathe, Radio Television Espanola (RTVE), Remotamente Films, Sony Pictures Entertainment (SPE)
Жанр: Драма, мелодрама
Продолжительность: 02:02:39
Перевод: Дублированный | iTunes
Субтитры: Русские (Full), английские

Режиссер: Педро Альмодовар

rating

В ролях: Пенелопа Крус, Росси де Пальма, Айтана Санчес-Хихон, Даниэла Сантьяго, Милена Смит, Хульета Серрано, Хосе Хавьер Домингес, Исраэль Элехальде, Кармен Флорес

Описание: Судьбы двух женщин пересекаются в родильном отделении. Дженис — успешный фотограф, Ана — запутавшийся подросток. Обе женщины одиноки, а обе беременности не были запланированы. Но случайная встреча оборачивается тесной связью, которая безвозвратно изменит их жизни навсегда.

Качество: BD Remux 1080p
Формат: MKV

Видео: MPEG-4 AVC, 1920x1080, 28.0 Mbit/s, 24.000 fps
Аудио #01: 48 kHz, AC3, 5.1, 384 Kbps | iTunes | RUS |
Аудио #02: 48 kHz, DTS-HD MA, 5.1, 3840 Kbps | Оригинал | SPA |
скриншот  скриншот  скриншот  скриншот  

General
Unique ID : 19655383700027794315467341770869503243 (0xEC97D3C72F9C955C8B50D76E0ACF50B)
Complete name : E:VideoMadres.Paralelas.2021.BDREMUX.1080p.seleZen.mkv
Format : Matroska
Format version : Version 4
File size : 27.6 GiB
Duration : 2 h 2 min
Overall bit rate mode : Variable
Overall bit rate : 32.2 Mb/s
Movie name : Madres paralelas AKA Parallel Mothers 2021 from seleZen
Encoded date : UTC 2022-03-04 20:59:39
Writing application : mkvmerge v59.0.0 ('Shining Star') 64-bit
Writing library : libebml v1.4.2 + libmatroska v1.6.4

Video
ID : 1
Format : AVC
Format/Info : Advanced Video Codec
Format profile : High@L4.1
Format settings : CABAC / 4 Ref Frames
Format settings, CABAC : Yes
Format settings, Reference : 4 frames
Codec ID : V_MPEG4/ISO/AVC
Duration : 2 h 2 min
Bit rate mode : Variable
Bit rate : 28.0 Mb/s
Maximum bit rate : 36.0 Mb/s
Width : 1 920 pixels
Height : 1 080 pixels
Display aspect ratio : 16:9
Frame rate mode : Constant
Frame rate : 24.000 FPS
Standard : NTSC
Color space : YUV
Chroma subsampling : 4:2:0
Bit depth : 8 bits
Scan type : Progressive
Bits/(Pixel*Frame) : 0.563
Stream size : 24.0 GiB (87%)
Default : No
Forced : No
Color range : Limited
Color primaries : BT.709
Transfer characteristics : BT.709
Matrix coefficients : BT.709

Audio #1
ID : 2
Format : AC-3
Format/Info : Audio Coding 3
Commercial name : Dolby Digital
Codec ID : A_AC3
Duration : 2 h 2 min
Bit rate mode : Constant
Bit rate : 384 kb/s
Channel(s) : 6 channels
Channel layout : L R C LFE Ls Rs
Sampling rate : 48.0 kHz
Frame rate : 31.250 FPS (1536 SPF)
Compression mode : Lossy
Stream size : 337 MiB (1%)
Title : iTunes
Language : Russian
Service kind : Complete Main
Default : Yes
Forced : Yes

Audio #2
ID : 3
Format : DTS XLL
Format/Info : Digital Theater Systems
Commercial name : DTS-HD Master Audio
Codec ID : A_DTS
Duration : 2 h 2 min
Bit rate mode : Variable
Bit rate : 3 840 kb/s
Channel(s) : 6 channels
Channel layout : C L R Ls Rs LFE
Sampling rate : 48.0 kHz
Frame rate : 93.750 FPS (512 SPF)
Bit depth : 24 bits
Compression mode : Lossless
Stream size : 3.28 GiB (12%)
Title : Original
Language : Spanish
Default : No
Forced : No

Text #1
ID : 4
Format : UTF-8
Codec ID : S_TEXT/UTF8
Codec ID/Info : UTF-8 Plain Text
Duration : 1 h 29 min
Bit rate : 1 b/s
Count of elements : 15
Stream size : 1.26 KiB (0%)
Title : Forced
Language : Russian
Default : Yes
Forced : Yes

Text #2
ID : 5
Format : UTF-8
Codec ID : S_TEXT/UTF8
Codec ID/Info : UTF-8 Plain Text
Duration : 1 h 56 min
Bit rate : 96 b/s
Count of elements : 1376
Stream size : 82.2 KiB (0%)
Title : Full
Language : Russian
Default : No
Forced : No

Text #3
ID : 6
Format : UTF-8
Codec ID : S_TEXT/UTF8
Codec ID/Info : UTF-8 Plain Text
Duration : 1 h 57 min
Bit rate : 54 b/s
Count of elements : 1668
Stream size : 46.9 KiB (0%)
Title : Full
Language : English
Default : No
Forced : No

Menu
00:00:00.000 : :Chapter 01
00:10:12.000 : :Chapter 02
00:20:12.917 : :Chapter 03
00:31:32.292 : :Chapter 04
00:39:56.333 : :Chapter 05
00:51:03.833 : :Chapter 06
01:01:37.167 : :Chapter 07
01:12:11.042 : :Chapter 08
01:21:16.292 : :Chapter 09
01:31:51.875 : :Chapter 10
01:41:13.417 : :Chapter 11
01:52:59.292 : :Chapter 12

pb.wtf



Скачать Параллельные матери через торрент https://c.radikal.ru/c23/2203/2d/d0542958b869.jpg Скачать, смотреть онлайн Параллельные матери бесплантно в хорошем качестве Описание: Судьбы двух женщин пересекаются в родильном отделении. Дженис — успешный фотограф, Ана — запутавшийся подросток. Обе женщины ... 9 10 4
Торрент: Зарегистрирован [2022-03-05 02:54] · скачан: 28 раз
Статус: √ проверено
Размер: 27.6 GB
Как cкачать? Как скачать Параллельные матери через торрент | UTorrent

% Раздел Тема Автор DL S | L
Фильмы [HD 720p, 1080p] (Хороший звук DUB, MVO) [ 8.63 GB ] Параллельные матери / Madres paralelas / Parallel Mothers [2021 BDRip 1080p] от Generalfilm White Smoke Скачать
1 | 0
Фильмы 2021 [DVDrip, WEB-DLRip, HDrip] (DUB, MVO) [ 746 MB ] Параллельные матери / Madres paralelas / Parallel Mothers [2021 BDRip] bober100 Скачать
2 | 0
Фильмы 2021 [DVDrip, WEB-DLRip, HDrip] (DUB, MVO) [ 1.91 GB ] Параллельные матери / Madres paralelas / Parallel Mothers [2021 BDRip-AVC] от ExKinoRay Lithuania Скачать
2 | 0
Фильмы 2021 [DVDrip, WEB-DLRip, HDrip] (DUB, MVO) [ 2.14 GB ] Параллельные матери / Madres paralelas / Parallel Mothers [2021 BDRip] bober100 Скачать
1 | 0
Фильмы 2021 [DVDrip, WEB-DLRip, HDrip] (DUB, MVO) [ 1.46 GB ] Параллельные матери / Madres paralelas / Parallel Mothers [2021 BDRip] bober100 Скачать
2 | 0
Фильмы [HD 720p, 1080p] (Хороший звук DUB, MVO) [ 6.01 GB ] Параллельные матери / Madres paralelas / Parallel Mothers [2021 BDRip 720p] bober100 Скачать
1 | 0
Фильмы [HD 720p, 1080p] (Хороший звук DUB, MVO) [ 12 GB ] Параллельные матери / Madres paralelas / Parallel Mothers [2021 BDRip 1080p] bober100 Скачать
1 | 0

28-11-2019 20:33  

Отключить всю рекламу на сайте

    Дорогой пользователь! Огромная просьба, поблагодарите релизера, оцените раздачу и оставьте свои комментарий, если Вы скачали Параллельные матери через торрент бесплатно!
    Комментировать посты могут только пользователи прошедшие не сложную регистрацию
    Показать сообщения:    

    Параллельные матери через торрент
    Скачать бесплатно Параллельные матери
    Параллельные матери скачать торрент
    Параллельные матери смотреть онлайн
    Cкачать фильм Параллельные матери бесплатно
    Параллельные матери скачать торрент в хорошем качестве
    Параллельные матери смотреть онлайн бесплатно в хорошем качестве


    Вы не можете начинать темы
    Вы не можете отвечать на сообщения
    Вы не можете редактировать свои сообщения
    Вы не можете удалять свои сообщения
    Вы не можете голосовать в опросах
    Вы не можете прикреплять файлы к сообщениям
    Вы можете скачивать файлы