Всегда рабочее зеркало без VPN и Proxy просто перед .vidak.icu напиши любое слово или цифру, Пример http://uoq7.vidak.icu

MVO

Лицензия

1 сезон

1

1 сезон

iTunes

1 сезон

13

1 сезон

Deluxe

pack

Рекомендуем

Пиратка

30

ВАЖНО

RePack

MK11

RePack

jed

RePack

fifa19

RePack

RDR2

RePack

NEED FOR SPEED™ PAYBACK

Кинопоиск HD

6 сезон

 Острые козырьки 6 сезон

Все сериалы

все сериалы на PB.wtf

RePack

FAR CRY 5
  
Magnet ссылка

Параллельные матери / Madres paralelas / Parallel Mothers (Педро Альмодовар) [2021, Драма, мелодрама, BDRip 1080p] DUB [iTunes] от Generalfilm pb.wtf

Параллельные матери через торрент pb.wtf

Размер: 8.63 GB | Добавлен: 3 мес. 28 д. назад | Торрент скачан:34 раза
Смотреть онлайн Параллельные матери | Скачать    Ребята, помогите собрать деньги на оплату серверов!!!

06-03-2022 14:05 Параллельные матери Скачать торрент  

Параллельные матери / Madres paralelas / Parallel Mothers Информация о фильме
Год выпуска: 2021
Страна: Испания
Студия:El Deseo S.A., Pathe, Radio Television Espanola (RTVE), Remotamente Films, Sony Pictures Entertainment (SPE)

Жанр: Драма, мелодрама
Перевод: Дублированный [iTunes]
Продолжительность: 02:02:39
Субтитры: русские (Forced)
Режиссер: Педро Альмодовар
В ролях:
Пенелопа Крус, Росси де Пальма, Айтана Санчес-Хихон, Даниэла Сантьяго, Милена Смит, Хульета Серрано, Хосе Хавьер Домингес, Исраэль Элехальде, Кармен Флорес
О фильме: Судьбы двух женщин пересекаются в родильном отделении. Дженис — успешный фотограф, Ана — запутавшийся подросток. Обе женщины одиноки, а обе беременности не были запланированы. Но случайная встреча оборачивается тесной связью, которая безвозвратно изменит их жизни навсегда.


Качество: BDRip 1080p
Формат: MKV
Видео: MPEG-4 AVC,1920x1036 (1.85:1), 24.000 fps, 9 700 kb/s (0.203 bit/pixel)
Аудио:русский, AC3, 48.0 kHz, 6 ch, 384 kb/s iTunes
Навигация по главам: есть
General
Unique ID : 173055826684292821416835106837836636660 (0x823157017897EDA2826F29519060A1F4)
Complete name : C:Madres.Paralelas.2021.BDRip-1080p.Rip.by.White Smoke.R.G.Generalfilm.mkv
Format : Matroska
Format version : Version 4
File size : 8.63 GiB
Duration : 2 h 2 min
Overall bit rate : 10.1 Mb/s
Movie name : Madres.Paralelas.2021.BDRip-1080p.Rip.by.White Smoke.R.G.Generalfilm.mkv
Encoded date : UTC 2022-03-06 11:34:40
Writing application : mkvmerge v6.8.0 ('Theme for Great Cities') 64bit built on Mar 2 2014 21:34:26
Writing library : libebml v1.3.0 + libmatroska v1.4.1

Video
ID : 1
Format : AVC
Format/Info : Advanced Video Codec
Format profile : High@L4.1
Format settings : CABAC / 4 Ref Frames
Format settings, CABAC : Yes
Format settings, Reference frames : 4 frames
Codec ID : V_MPEG4/ISO/AVC
Duration : 2 h 2 min
Bit rate : 9 700 kb/s
Width : 1 920 pixels
Height : 1 036 pixels
Display aspect ratio : 1.85:1
Frame rate mode : Constant
Frame rate : 24.000 FPS
Color space : YUV
Chroma subsampling : 4:2:0
Bit depth : 8 bits
Scan type : Progressive
Bits/(Pixel*Frame) : 0.203
Stream size : 8.13 GiB (94%)
Writing library : x264 core 148 r2638 7599210
Encoding settings : cabac=1 / ref=4 / deblock=1:-2:-1 / analyse=0x3:0x113 / me=umh / subme=10 / psy=1 / psy_rd=0.00:0.15 / mixed_ref=1 / me_range=32 / chroma_me=1 / trellis=2 / 8x8dct=1 / cqm=0 / deadzone=21,11 / fast_pskip=0 / chroma_qp_offset=-3 / threads=32 / lookahead_threads=8 / sliced_threads=0 / nr=0 / decimate=0 / interlaced=0 / bluray_compat=0 / constrained_intra=0 / bframes=10 / b_pyramid=2 / b_adapt=2 / b_bias=0 / direct=1 / weightb=1 / open_gop=0 / weightp=2 / keyint=240 / keyint_min=24 / scenecut=40 / intra_refresh=0 / rc_lookahead=40 / rc=2pass / mbtree=0 / bitrate=9700 / ratetol=1.0 / qcomp=0.65 / qpmin=0 / qpmax=69 / qpstep=4 / cplxblur=20.0 / qblur=0.5 / vbv_maxrate=50000 / vbv_bufsize=65500 / nal_hrd=none / filler=0 / ip_ratio=1.40 / pb_ratio=1.30 / aq=1:1.00
Language : English
Default : Yes
Forced : No

Audio
ID : 2
Format : AC-3
Format/Info : Audio Coding 3
Commercial name : Dolby Digital
Codec ID : A_AC3
Duration : 2 h 2 min
Bit rate mode : Constant
Bit rate : 384 kb/s
Channel(s) : 6 channels
Channel layout : L R C LFE Ls Rs
Sampling rate : 48.0 kHz
Frame rate : 31.250 FPS (1536 SPF)
Compression mode : Lossy
Stream size : 337 MiB (4%)
Title : iTunes
Language : Russian
Service kind : Complete Main
Default : Yes
Forced : Yes

Text
ID : 3
Format : UTF-8
Codec ID : S_TEXT/UTF8
Codec ID/Info : UTF-8 Plain Text
Title : Forced
Language : Russian
Default : Yes
Forced : Yes

Menu
00:00:00.000 : :Chapter 01
00:10:12.000 : :Chapter 02
00:20:12.917 : :Chapter 03
00:31:32.292 : :Chapter 04
00:39:56.333 : :Chapter 05
00:51:03.833 : :Chapter 06
01:01:37.167 : :Chapter 07
01:12:11.042 : :Chapter 08
01:21:16.292 : :Chapter 09
01:31:51.875 : :Chapter 10
01:41:13.417 : :Chapter 11
01:52:59.292 : :Chapter 12
pb.wtf



Скачать Параллельные матери через торрент https://i1.imageban.ru/out/2022/03/06/52eab85a418b4b569158c5cc17ac6109.jpg Скачать, смотреть онлайн Параллельные матери бесплантно в хорошем качестве О фильме: Судьбы двух женщин пересекаются в родильном отделении. Дженис — успешный фотограф, Ана — запутавшийся подросток. Обе женщины ... 5 10 1
Торрент: Зарегистрирован [2022-03-06 14:05] · скачан: 34 раз
Статус: √ проверено
Размер: 8.63 GB
Как cкачать? Как скачать Параллельные матери через торрент | UTorrent

28-11-2019 20:33  

Отключить всю рекламу на сайте

    Дорогой пользователь! Огромная просьба, поблагодарите релизера, оцените раздачу и оставьте свои комментарий, если Вы скачали Параллельные матери через торрент бесплатно!
    Комментировать посты могут только пользователи прошедшие не сложную регистрацию
    Показать сообщения:    

    Параллельные матери через торрент
    Скачать бесплатно Параллельные матери
    Параллельные матери скачать торрент
    Параллельные матери смотреть онлайн
    Cкачать фильм Параллельные матери бесплатно
    Параллельные матери скачать торрент в хорошем качестве
    Параллельные матери смотреть онлайн бесплатно в хорошем качестве


    Вы не можете начинать темы
    Вы не можете отвечать на сообщения
    Вы не можете редактировать свои сообщения
    Вы не можете удалять свои сообщения
    Вы не можете голосовать в опросах
    Вы не можете прикреплять файлы к сообщениям
    Вы можете скачивать файлы