Всегда рабочее зеркало без VPN и Proxy просто перед .vidak.icu напиши любое слово или цифру, Пример http://x9dh.vidak.icu

MVO

Лицензия

1 сезон

1

1 сезон

iTunes

1 сезон

13

1 сезон

Deluxe

pack

Рекомендуем

Пиратка

30

ВАЖНО

RePack

MK11

RePack

jed

RePack

fifa19

RePack

RDR2

RePack

NEED FOR SPEED™ PAYBACK

Кинопоиск HD

6 сезон

 Острые козырьки 6 сезон

Все сериалы

все сериалы на PB.wtf

RePack

FAR CRY 5

Anonymous, нам критически не хватает 2100 руб. на оплату серверов и переферии за МАЙ, помоги нам пожалуйста, вся надежда только на тебя. В благодарность мы отключим тебе всю рекламу на сайте!

×
  
Magnet ссылка

Яйцо Фаберже (Илья Фарфель) [2022, Комедия, приключения, WEB-DL 720p] [КиноПоиск HD] pb.wtf

Яйцо Фаберже через торрент pb.wtf

Раздают: 3 [ 0 KB/s ]
Размер: 2.71 GB | Добавлен: 3 мес. 21 д. назад | Торрент скачан:197 раз
Смотреть онлайн Яйцо Фаберже | Скачать    Ребята, помогите собрать деньги на оплату серверов!!!

07-03-2022 15:32 Яйцо Фаберже Скачать торрент  

Яйцо Фаберже
Год выпуска: 2022
Страна: Россия
Студия: Производство ООО «Гуд Стори медиа» по заказу ООО «ГПМ РТВ», ТНТ
Жанр: Комедия, приключения
Продолжительность: 01:27:44
Перевод: Не требуется | КиноПоиск HD
Субтитры: отсутствуют

Режиссер: Илья Фарфель

rating

В ролях: Николай Наумов, Максим Лагашкин, Юрий Стоянов, Ольга Виниченко, Илья Борисов, Александр Мехряков, Полина Шустарева, Пётр Натаров

Описание: В детстве все хотят — «когда вырастут» — стать звездами или чемпионами мира, генералами или моделями, богатыми бездельниками или простыми космонавтами. Никто не мечтает о карьере ассенизатора или мусорщика. Но у судьбы свои планы... Два друга детства встречаются на дне жизни. Один — актер-неудачник, втюхивает бабушкам китайские сковородки. Второй — гопник с района, не просыхает со времен ПТУ. И вдруг у них появляется шанс вырваться из трясины и воплотить свои мечты! Для этого всего лишь нужно украсть яйцо Фаберже из местного краеведческого музея. Заказчик дерзкого ограбления — потомок того самого Фаберже, и у него своя мечта: вернуть реликвию в семью. И все могло бы пройти удачно, вот только один из друзей влюбляется в жену другого...

Качество: WEB-DL 720p
Формат: MKV

Видео: MPEG-4 AVC, 4000 Кбит/с, 1280x536, 24.000 fps
Аудио: 48 kHz, E-AC3, 5.1, 448 Kbps | Кинопоиск HD | RUS |

Общее
Уникальный идентификатор : 114537649048610782392694413641205657930 (0x562B26182A7D9310555BF0A8CB1FB14A)
Полное имя : D:\Yajco.Faberzhe.2021.WEB-DL.720p.ELEKTRI4KA.UNIONGANG.mkv
Формат : Matroska
Версия формата : Version 4
Размер файла : 2,71 Гбайт
Продолжительность : 1 ч. 27 м.
Общий поток : 4 427 Кбит/сек
Название фильма : Yajco.Faberzhe.2021.WEB-DL.720p.ELEKTRI4KA.UNIONGANG
Дата кодирования : UTC 2022-03-07 15:39:38
Программа кодирования : mkvmerge v65.0.0 ('Too Much') 64-bit
Библиотека кодирования : libebml v1.4.2 + libmatroska v1.6.4
Attachments : poster.jpg

Видео
Идентификатор : 1
Формат : AVC
Формат/Информация : Advanced Video Codec
Профиль формата : High@L3.1
Настройки формата : CABAC / 6 Ref Frames
Параметр CABAC формата : Да
Параметр RefFrames формата : 6 кадров
Идентификатор кодека : V_MPEG4/ISO/AVC
Продолжительность : 1 ч. 27 м.
Битрейт : 4 000 Кбит/сек
Ширина : 1 280 пикселей
Высота : 536 пикселей
Соотношение сторон : 2,40:1
Режим частоты кадров : Постоянный
Частота кадров : 24,000 кадра/сек
Цветовое пространство : YUV
Субдискретизация насыщенности : 4:2:0
Битовая глубина : 8 бит
Тип развёртки : Прогрессивная
Бит/(Пиксели*Кадры) : 0.243
Размер потока : 2,44 Гбайт (90%)
Библиотека кодирования : x264 core 157
Настройки программы : cabac=1 / ref=6 / deblock=1:0:0 / analyse=0x3:0x133 / me=umh / subme=10 / psy=1 / psy_rd=1.00:0.00 / mixed_ref=1 / me_range=24 / chroma_me=1 / trellis=2 / 8x8dct=1 / cqm=0 / deadzone=21,11 / fast_pskip=1 / chroma_qp_offset=-2 / threads=17 / lookahead_threads=2 / sliced_threads=0 / nr=0 / decimate=1 / interlaced=0 / bluray_compat=0 / constrained_intra=0 / bframes=8 / b_pyramid=2 / b_adapt=2 / b_bias=0 / direct=3 / weightb=1 / open_gop=0 / weightp=2 / keyint=192 / keyint_min=96 / scenecut=40 / intra_refresh=0 / rc_lookahead=60 / rc=2pass / mbtree=1 / bitrate=4000 / ratetol=1.0 / qcomp=0.60 / qpmin=0 / qpmax=69 / qpstep=4 / cplxblur=20.0 / qblur=0.5 / vbv_maxrate=4400 / vbv_bufsize=6000 / nal_hrd=none / filler=0 / ip_ratio=1.40 / aq=1:1.00
Default : Да
Forced : Нет

Аудио
Идентификатор : 2
Формат : E-AC-3
Формат/Информация : Enhanced AC-3
Коммерческое название : Dolby Digital Plus
Идентификатор кодека : A_EAC3
Продолжительность : 1 ч. 27 м.
Вид битрейта : Постоянный
Битрейт : 448 Кбит/сек
Каналы : 6 каналов
Channel layout : L R C LFE Ls Rs
Частота : 48,0 КГц
Частота кадров : 31,250 кадров/сек (1536 SPF)
Метод сжатия : С потерями
Размер потока : 281 Мбайт (10%)
Заголовок : КиноПоиск HD
Язык : Russian
Service kind : Complete Main
Default : Да
Forced : Нет

pb.wtf



Скачать Яйцо Фаберже через торрент https://i116.fastpic.org/big/2022/0307/44/2a2f96482b21081d154ee8675292ee44.jpg Скачать, смотреть онлайн Яйцо Фаберже бесплантно в хорошем качестве Описание: В детстве все хотят — «когда вырастут» — стать звездами или чемпионами мира, генералами или моделями, богатыми бездельниками или ... 7.7 10 9
Торрент: Зарегистрирован [2022-03-07 17:18] · скачан: 197 раз
Статус: √ проверено
Размер: 2.71 GB
Как cкачать? Как скачать Яйцо Фаберже через торрент | UTorrent

% Раздел Тема Автор DL S | L
Наши фильмы (HD, WEB-DL 720p, 1080p) [ 4.22 GB ] Яйцо Фаберже [2022 WEB-DL 1080p] [КиноПоиск HD] bober100 Скачать
3 | 0
Наши новые фильмы 2020 - 2022 [ 1.74 GB ] Яйцо Фаберже [2022 WEB-DLRip-AVC] [КиноПоиск HD] sudar007 Скачать
2 | 0
T Наши новые фильмы 2020 - 2022 [ 1.13 GB ] Яйцо Фаберже [2022 WEB-DLRip-AVC] [ОККО] bober100 Скачать
3 | 0
Наши новые фильмы 2020 - 2022 [ 1.46 GB ] Яйцо Фаберже [2022 WEB-DLRip] [КиноПоиск HD] bober100 Скачать
9 | 0

28-11-2019 20:33  

Отключить всю рекламу на сайте

08-03-2022 10:58 Яйцо Фаберже Скачать торрент  

это чего надо обожраться чтобы снять такое произведение, это п...ц товарищи , за такие фильмы надо на кол сажать всех к нему причастныхpb.wtf



    Дорогой пользователь! Огромная просьба, поблагодарите релизера, оцените раздачу и оставьте свои комментарий, если Вы скачали Яйцо Фаберже через торрент бесплатно!
    Комментировать посты могут только пользователи прошедшие не сложную регистрацию
    Показать сообщения:    

    Яйцо Фаберже через торрент
    Скачать бесплатно Яйцо Фаберже
    Яйцо Фаберже скачать торрент
    Яйцо Фаберже смотреть онлайн
    Cкачать фильм Яйцо Фаберже бесплатно
    Яйцо Фаберже скачать торрент в хорошем качестве
    Яйцо Фаберже смотреть онлайн бесплатно в хорошем качестве


    Вы не можете начинать темы
    Вы не можете отвечать на сообщения
    Вы не можете редактировать свои сообщения
    Вы не можете удалять свои сообщения
    Вы не можете голосовать в опросах
    Вы не можете прикреплять файлы к сообщениям
    Вы можете скачивать файлы