Всегда рабочее зеркало без VPN и Proxy просто перед .vidak.icu напиши любое слово или цифру, Пример http://tmo1.vidak.icu

MVO

Лицензия

1 сезон

1

1 сезон

iTunes

1 сезон

13

1 сезон

Deluxe

pack

Рекомендуем

Пиратка

30

ВАЖНО

RePack

MK11

RePack

jed

RePack

fifa19

RePack

RDR2

RePack

NEED FOR SPEED™ PAYBACK

Кинопоиск HD

6 сезон

 Острые козырьки 6 сезон

Все сериалы

все сериалы на PB.wtf

RePack

FAR CRY 5

Anonymous, нам критически не хватает 2100 руб. на оплату серверов и переферии за МАЙ, помоги нам пожалуйста, вся надежда только на тебя. В благодарность мы отключим тебе всю рекламу на сайте!

×
  
Magnet ссылка

Яйцо Фаберже (Илья Фарфель) [2022, Комедия, приключения, WEB-DL 1080p] [КиноПоиск HD] pb.wtf

Яйцо Фаберже через торрент pb.wtf

Раздают: 2 [ 126 KB/s ]
Размер: 4.22 GB | Добавлен: 3 мес. 18 д. назад | Торрент скачан:293 раза
Смотреть онлайн Яйцо Фаберже | Скачать    Ребята, помогите собрать деньги на оплату серверов!!!

07-03-2022 15:38 Яйцо Фаберже Скачать торрент  

Яйцо Фаберже
Год выпуска: 2022
Страна: Россия
Студия: Производство ООО «Гуд Стори медиа» по заказу ООО «ГПМ РТВ», ТНТ
Жанр: Комедия, приключения
Продолжительность: 01:27:44
Перевод: Не требуется | КиноПоиск HD
Субтитры: отсутствуют

Режиссер: Илья Фарфель

rating

В ролях: Николай Наумов, Максим Лагашкин, Юрий Стоянов, Ольга Виниченко, Илья Борисов, Александр Мехряков, Полина Шустарева, Пётр Натаров

Описание: В детстве все хотят — «когда вырастут» — стать звездами или чемпионами мира, генералами или моделями, богатыми бездельниками или простыми космонавтами. Никто не мечтает о карьере ассенизатора или мусорщика. Но у судьбы свои планы... Два друга детства встречаются на дне жизни. Один — актер-неудачник, втюхивает бабушкам китайские сковородки. Второй — гопник с района, не просыхает со времен ПТУ. И вдруг у них появляется шанс вырваться из трясины и воплотить свои мечты! Для этого всего лишь нужно украсть яйцо Фаберже из местного краеведческого музея. Заказчик дерзкого ограбления — потомок того самого Фаберже, и у него своя мечта: вернуть реликвию в семью. И все могло бы пройти удачно, вот только один из друзей влюбляется в жену другого...

Качество: WEB-DL 1080p
Формат: MKV

Видео: MPEG-4 AVC, ~ 6000 Кбит/с, 1920x804, 24.000 fps
Аудио #01: 48 kHz, AC3, 5.1, 448 Kbps | Кинопоиск HD | RUS |
Аудио #02: 48 kHz, E-AC3, 5.1, 448 Kbps | Кинопоиск HD | RUS |
скриншот  скриншот  скриншот  скриншот  

Complete name : Yaytso.Faberzhe.2021.KP.WEB-DL.1080p.ELEKTRI4KA.UNIONGANG.mkv
Format : Matroska
Format version : Version 4
File size : 4.22 GiB
Duration : 1 h 27 min
Overall bit rate : 6 879 kb/s
Movie name : Yaytso.Faberzhe.2021.KP.WEB-DL.1080p.ELEKTRI4KA.UNIONGANG.
Encoded date : UTC 2022-03-07 16:25:32
Writing application : mkvmerge v63.0.0 ('Everything') 32-bit
Writing library : libebml v1.4.2 + libmatroska v1.6.4

Video
ID : 1
Format : AVC
Format/Info : Advanced Video Codec
Format profile : High@L4
Format settings : CABAC / 5 Ref Frames
Format settings, CABAC : Yes
Format settings, Reference frames : 5 frames
Codec ID : V_MPEG4/ISO/AVC
Duration : 1 h 27 min
Bit rate : 6 000 kb/s
Width : 1 920 pixels
Height : 804 pixels
Display aspect ratio : 2.40:1
Frame rate mode : Constant
Frame rate : 24.000 FPS
Color space : YUV
Chroma subsampling : 4:2:0
Bit depth : 8 bits
Scan type : Progressive
Bits/(Pixel*Frame) : 0.162
Stream size : 3.67 GiB (87%)
Writing library : x264 core 157
Encoding settings : cabac=1 / ref=5 / deblock=1:0:0 / analyse=0x3:0x133 / me=umh / subme=10 / psy=1 / psy_rd=1.00:0.00 / mixed_ref=1 / me_range=24 / chroma_me=1 / trellis=2 / 8x8dct=1 / cqm=0 / deadzone=21,11 / fast_pskip=1 / chroma_qp_offset=-2 / threads=25 / lookahead_threads=4 / sliced_threads=0 / nr=0 / decimate=1 / interlaced=0 / bluray_compat=0 / constrained_intra=0 / bframes=8 / b_pyramid=2 / b_adapt=2 / b_bias=0 / direct=3 / weightb=1 / open_gop=0 / weightp=2 / keyint=192 / keyint_min=96 / scenecut=40 / intra_refresh=0 / rc_lookahead=60 / rc=2pass / mbtree=1 / bitrate=6000 / ratetol=1.0 / qcomp=0.60 / qpmin=0 / qpmax=69 / qpstep=4 / cplxblur=20.0 / qblur=0.5 / vbv_maxrate=6600 / vbv_bufsize=9000 / nal_hrd=none / filler=0 / ip_ratio=1.40 / aq=1:1.00
Default : Yes
Forced : No

Audio #1
ID : 2
Format : AC-3
Format/Info : Audio Coding 3
Commercial name : Dolby Digital
Codec ID : A_AC3
Duration : 1 h 27 min
Bit rate mode : Constant
Bit rate : 448 kb/s
Channel(s) : 6 channels
Channel layout : L R C LFE Ls Rs
Sampling rate : 48.0 kHz
Frame rate : 31.250 FPS (1536 SPF)
Compression mode : Lossy
Stream size : 281 MiB (7%)
Title : Original AC3 (KinoPoisk HD)
Language : Russian
Service kind : Complete Main
Default : Yes
Forced : Yes

Audio #2
ID : 3
Format : E-AC-3
Format/Info : Enhanced AC-3
Commercial name : Dolby Digital Plus
Codec ID : A_EAC3
Duration : 1 h 27 min
Bit rate mode : Constant
Bit rate : 448 kb/s
Channel(s) : 6 channels
Channel layout : L R C LFE Ls Rs
Sampling rate : 48.0 kHz
Frame rate : 31.250 FPS (1536 SPF)
Compression mode : Lossy
Stream size : 281 MiB (7%)
Title : Original E-AC3 (KinoPoisk HD)
Language : Russian
Service kind : Complete Main
Default : No
Forced : No

pb.wtf



Скачать Яйцо Фаберже через торрент https://i116.fastpic.org/big/2022/0307/44/2a2f96482b21081d154ee8675292ee44.jpg Скачать, смотреть онлайн Яйцо Фаберже бесплантно в хорошем качестве Описание: В детстве все хотят — «когда вырастут» — стать звездами или чемпионами мира, генералами или моделями, богатыми бездельниками или ... 8.8 10 15
Торрент: Зарегистрирован [2022-03-07 16:48] · скачан: 293 раз
Статус: √ проверено
Размер: 4.22 GB
Как cкачать? Как скачать Яйцо Фаберже через торрент | UTorrent

% Раздел Тема Автор DL S | L
Наши фильмы (HD, WEB-DL 720p, 1080p) [ 2.71 GB ] Яйцо Фаберже [2022 WEB-DL 720p] [КиноПоиск HD] bober100 Скачать
5 | 0
Наши новые фильмы 2020 - 2022 [ 1.74 GB ] Яйцо Фаберже [2022 WEB-DLRip-AVC] [КиноПоиск HD] sudar007 Скачать
1 | 0
T Наши новые фильмы 2020 - 2022 [ 1.13 GB ] Яйцо Фаберже [2022 WEB-DLRip-AVC] [ОККО] bober100 Скачать
3 | 0
Наши новые фильмы 2020 - 2022 [ 1.46 GB ] Яйцо Фаберже [2022 WEB-DLRip] [КиноПоиск HD] bober100 Скачать
7 | 0

28-11-2019 20:33  

Отключить всю рекламу на сайте

08-03-2022 11:00 Яйцо Фаберже Скачать торрент  

это чего надо обожраться чтобы снять такое произведение, это п...ц товарищи , за такие фильмы надо на кол сажать всех к нему причастных, ГОВ...О РЕДКОСТНОЕpb.wtf



    Дорогой пользователь! Огромная просьба, поблагодарите релизера, оцените раздачу и оставьте свои комментарий, если Вы скачали Яйцо Фаберже через торрент бесплатно!
    Комментировать посты могут только пользователи прошедшие не сложную регистрацию
    Показать сообщения:    

    Яйцо Фаберже через торрент
    Скачать бесплатно Яйцо Фаберже
    Яйцо Фаберже скачать торрент
    Яйцо Фаберже смотреть онлайн
    Cкачать фильм Яйцо Фаберже бесплатно
    Яйцо Фаберже скачать торрент в хорошем качестве
    Яйцо Фаберже смотреть онлайн бесплатно в хорошем качестве


    Вы не можете начинать темы
    Вы не можете отвечать на сообщения
    Вы не можете редактировать свои сообщения
    Вы не можете удалять свои сообщения
    Вы не можете голосовать в опросах
    Вы не можете прикреплять файлы к сообщениям
    Вы можете скачивать файлы