Всегда рабочее зеркало без VPN и Proxy просто перед .vidak.icu напиши любое слово или цифру, Пример http://c5i1.vidak.icu

MVO

Лицензия

1 сезон

1

1 сезон

iTunes

1 сезон

13

1 сезон

Deluxe

pack

Рекомендуем

Repack

30

ВАЖНО

RePack

MK11

RePack

jed

RePack

fifa19

RePack

RDR2

RePack

NEED FOR SPEED™ PAYBACK

Кинопоиск HD

6 сезон

 Острые козырьки 6 сезон

Все сериалы

все сериалы на PB.wtf

RePack

FAR CRY 5
  
Magnet ссылка

Исчезнувший / My Son (Кристиан Карион) [2021, Триллер, драма, криминал, детектив, BDRip 720p] DUB [Марафон / Кинопоиск HD] pb.wtf

Исчезнувший через торрент pb.wtf

Раздают: 1 [ 0 KB/s ]
Размер: 5.04 GB | Добавлен: 3 мес. 28 д. назад | Торрент скачан:77 раз
Смотреть онлайн Исчезнувший | Скачать    Ребята, помогите собрать деньги на оплату серверов!!!

09-03-2022 15:34 Исчезнувший Скачать торрент  

Исчезнувший | My Son
Год выпуска: 2021
Страна: Великобритания, Франция
Студия: Canal+ [fr], Ciné Plus, Creative Scotland, MadRiver Pictures, Sixteen Films, STX Films, Une Hirondelle Productions, Wild Bunch, Wild Bunch Germany
Жанр: Триллер, драма, криминал, детектив
Продолжительность: 01:35:44
Перевод: Дублированный | Марафон | Кинопоиск HD
Субтитры: Русские (Full), английские

Режиссер: Кристиан Карион

rating

В ролях: Джеймс МакЭвой, Клер Фой, Джэми Мичи, Роберт Джек, Оуэн Уайтлоу, Пол Рэттрэй, Марк Барретт, Майкл Морлэнд, Розалинд Сидни, Эндрю Джон Тейт

Описание: Во время поездки по самому сердцу Шотландии, в Хайленде, Эдмонд Мюррей получает звонок от своей бывшей жены. Сотрясающимся от слез голосом она сообщает ему об исчезновении их 7-летнего сына. Вскоре выясняется, что мальчика похитили. «Исчезнувший» — ремейк французской драмы «Мой сын» 2017 года.

Качество: BDRip 720p
Формат: MKV

Видео: MPEG-4 AVC, 1280x536, 6030 Кbit/s, 23.976 fps
Аудио #01: 48 kHz, AC3, 5.1, 448 Kbps | Дублированный | Марафон | RUS |
Аудио #02: 48 kHz, E-AC3, 5.1, 448 Kbps | Дублированный | Марафон | RUS |
Аудио #03: 48 kHz, AC3, 5.1, 640 Kbps | Оригинал | ENG |
скриншот  скриншот  скриншот  скриншот  скриншот  

General
Unique ID : 229674721859863986781441387354719648132 (0xACC9BE0FE2548C58C540F9797DBDF984)
Complete name : D:Video1My.Son.2021.BDRip.720p.seleZen.mkv
Format : Matroska
Format version : Version 4
File size : 5.04 GiB
Duration : 1 h 35 min
Overall bit rate : 7 540 kb/s
Movie name : My Son 2021 from seleZen
Encoded date : UTC 2022-03-09 04:43:46
Writing application : mkvmerge v59.0.0 ('Shining Star') 64-bit
Writing library : libebml v1.4.2 + libmatroska v1.6.4

Video
ID : 1
Format : AVC
Format/Info : Advanced Video Codec
Format profile : [email protected]
Format settings : CABAC / 12 Ref Frames
Format settings, CABAC : Yes
Format settings, Reference : 12 frames
Codec ID : V_MPEG4/ISO/AVC
Duration : 1 h 35 min
Bit rate : 6 030 kb/s
Width : 1 280 pixels
Height : 536 pixels
Display aspect ratio : 2.40:1
Frame rate mode : Constant
Frame rate : 23.976 (24000/1001) FPS
Color space : YUV
Chroma subsampling : 4:2:0
Bit depth : 8 bits
Scan type : Progressive
Bits/(Pixel*Frame) : 0.367
Stream size : 4.01 GiB (80%)
Writing library : x264 core 146 -from seleZen
Encoding settings : cabac=1 / ref=12 / deblock=1:-2:-2 / analyse=0x3:0x133 / me=umh / subme=11 / psy=1 / psy_rd=1.05:0.03 / mixed_ref=1 / me_range=32 / chroma_me=1 / trellis=2 / 8x8dct=1 / cqm=0 / deadzone=21,11 / fast_pskip=0 / chroma_qp_offset=-3 / threads=48 / lookahead_threads=4 / sliced_threads=0 / nr=0 / decimate=0 / interlaced=0 / bluray_compat=0 / constrained_intra=0 / bframes=8 / b_pyramid=2 / b_adapt=2 / b_bias=0 / direct=3 / weightb=1 / open_gop=0 / weightp=2 / keyint=240 / keyint_min=23 / scenecut=40 / intra_refresh=0 / rc_lookahead=50 / rc=2pass / mbtree=0 / bitrate=6030 / ratetol=1.0 / qcomp=0.60 / qpmin=0 / qpmax=51 / qpstep=4 / cplxblur=20.0 / qblur=0.5 / vbv_maxrate=50000 / vbv_bufsize=62500 / nal_hrd=none / filler=0 / ip_ratio=1.40 / pb_ratio=1.30 / aq=3:0.80
Language : English
Default : Yes
Forced : No

Audio #1
ID : 2
Format : AC-3
Format/Info : Audio Coding 3
Commercial name : Dolby Digital
Codec ID : A_AC3
Duration : 1 h 35 min
Bit rate mode : Constant
Bit rate : 448 kb/s
Channel(s) : 6 channels
Channel layout : L R C LFE Ls Rs
Sampling rate : 48.0 kHz
Frame rate : 31.250 FPS (1536 SPF)
Compression mode : Lossy
Stream size : 307 MiB (6%)
Title : Dub
Language : Russian
Service kind : Complete Main
Default : Yes
Forced : Yes

Audio #2
ID : 3
Format : E-AC-3
Format/Info : Enhanced AC-3
Commercial name : Dolby Digital Plus
Codec ID : A_EAC3
Duration : 1 h 35 min
Bit rate mode : Constant
Bit rate : 448 kb/s
Channel(s) : 6 channels
Channel layout : L R C LFE Ls Rs
Sampling rate : 48.0 kHz
Frame rate : 31.250 FPS (1536 SPF)
Compression mode : Lossy
Stream size : 307 MiB (6%)
Title : Dub
Language : Russian
Service kind : Complete Main
Default : No
Forced : No

Audio #3
ID : 4
Format : AC-3
Format/Info : Audio Coding 3
Commercial name : Dolby Digital
Codec ID : A_AC3
Duration : 1 h 35 min
Bit rate mode : Constant
Bit rate : 640 kb/s
Channel(s) : 6 channels
Channel layout : L R C LFE Ls Rs
Sampling rate : 48.0 kHz
Frame rate : 31.250 FPS (1536 SPF)
Compression mode : Lossy
Stream size : 438 MiB (8%)
Title : Original
Language : English
Service kind : Complete Main
Default : No
Forced : No

Text #1
ID : 5
Format : UTF-8
Codec ID : S_TEXT/UTF8
Codec ID/Info : UTF-8 Plain Text
Duration : 1 h 27 min
Bit rate : 67 b/s
Count of elements : 877
Stream size : 43.1 KiB (0%)
Title : Full
Language : Russian
Default : No
Forced : No

Text #2
ID : 6
Format : UTF-8
Codec ID : S_TEXT/UTF8
Codec ID/Info : UTF-8 Plain Text
Duration : 1 h 28 min
Bit rate : 51 b/s
Count of elements : 947
Stream size : 33.6 KiB (0%)
Title : Full
Language : English
Default : No
Forced : No

Menu
00:00:00.000 : Chapter 01
00:09:32.947 : Chapter 02
00:18:58.512 : Chapter 03
00:27:13.965 : Chapter 04
00:38:36.105 : Chapter 05
00:47:17.501 : Chapter 06
00:54:59.129 : Chapter 07
01:00:32.420 : Chapter 08
01:07:13.654 : Chapter 09
01:15:23.268 : Chapter 10
01:22:31.988 : Chapter 11
01:30:23.251 : Chapter 12

pb.wtf



Скачать Исчезнувший через торрент https://a.radikal.ru/a30/2110/3d/cbf9c37b2344.jpg Скачать, смотреть онлайн Исчезнувший бесплантно в хорошем качестве Описание: Во время поездки по самому сердцу Шотландии, в Хайленде, Эдмонд Мюррей получает звонок от своей бывшей жены. Сотрясающимся от ... 10 10 6
Торрент: Зарегистрирован [2022-03-09 15:34] · скачан: 77 раз
Статус: √ проверено
Размер: 5.04 GB
Как cкачать? Как скачать Исчезнувший через торрент | UTorrent

% Раздел Тема Автор DL S | L
Фильмы 2021 [DVDrip, WEB-DLRip, HDrip] (DUB, MVO) [ 746 MB ] Исчезнувший / My Son [2021 BDRip] DUB [Марафон / Кинопоиск HD] bober100 Скачать
3 | 0
Фильмы [HD 720p, 1080p] (Хороший звук DUB, MVO) [ 14.53 GB ] Исчезнувший / My Son [2021 BDRip 1080p] DUB [Марафон / Кинопоиск HD] bober100 Скачать
1 | 0
Фильмы (Blu-ray, BD-Remux, HDDVD) [ 24.17 GB ] Исчезнувший / My Son [2021 BD Remux 1080p] DUB [Марафон / Кинопоиск HD] bober100 Скачать
1 | 0
Фильмы 2021 [DVDrip, WEB-DLRip, HDrip] (DUB, MVO) [ 1.46 GB ] Исчезнувший / My Son [2021 BDRip] DUB [Марафон / Кинопоиск HD] bober100 Скачать
1 | 0
Фильмы 2021 [DVDrip, WEB-DLRip, HDrip] (DUB, MVO) [ 1.74 GB ] Исчезнувший / My Son [2021 WEB-DLRip-AVC] DUB [Марафон Локализованная версия] от ExKinoRay Lithuania Скачать
2 | 0
Фильмы (WEB-DL 720p, 1080p) [ 1.83 GB ] Исчезнувший / My Son [2021 WEB-DL 720p ] DUB [Марафон] bober100 Скачать
1 | 0
Фильмы 2021 [DVDrip, WEB-DLRip, HDrip] (DUB, MVO) [ 1.46 GB ] Исчезнувший / My Son [2021 WEB-DLRip ] DUB [Марафон | Кинопоиск HD] bober100 Скачать
2 | 0

28-11-2019 20:33  

Отключить всю рекламу на сайте

    Дорогой пользователь! Огромная просьба, поблагодарите релизера, оцените раздачу и оставьте свои комментарий, если Вы скачали Исчезнувший через торрент бесплатно!
    Комментировать посты могут только пользователи прошедшие не сложную регистрацию
    Показать сообщения:    

    Исчезнувший через торрент
    Скачать бесплатно Исчезнувший
    Исчезнувший скачать торрент
    Исчезнувший смотреть онлайн
    Cкачать фильм Исчезнувший бесплатно
    Исчезнувший скачать торрент в хорошем качестве
    Исчезнувший смотреть онлайн бесплатно в хорошем качестве


    Вы не можете начинать темы
    Вы не можете отвечать на сообщения
    Вы не можете редактировать свои сообщения
    Вы не можете удалять свои сообщения
    Вы не можете голосовать в опросах
    Вы не можете прикреплять файлы к сообщениям
    Вы можете скачивать файлы