Всегда рабочее зеркало без VPN и Proxy просто перед .vidak.icu напиши любое слово или цифру, Пример http://pku5.vidak.icu

MVO

2 сезон

2 сезон

1

1 сезон

iTunes

2 сезон

13

1 сезон

Распродажа

pack

Рекомендуем

Пиратка

30

ВАЖНО

RePack

MK11

RePack

jed

RePack

fifa19

RePack

RDR2

RePack

NEED FOR SPEED™ PAYBACK

Кинопоиск HD

6 сезон

 Острые козырьки 6 сезон

Все сериалы

все сериалы на PB.wtf

RePack

FAR CRY 5

Anonymous, нам критически не хватает 5601 руб. на оплату серверов и переферии за Апрель, помоги нам пожалуйста, вся надежда только на тебя. В благодарность мы отключим тебе всю рекламу на сайте!

×
  
Magnet ссылка

К югу от рая / До самой смерти / South of Heaven (Ахарон Кешалес) [2021, триллер, драма, криминал, BDRip-AVC] DUB [КиноПоиск HD] от ExKinoRay pb.wtf

К югу от рая через торрент pb.wtf

Размер: 2.42 GB | Добавлен: 2 мес. 6 д. назад | Торрент скачан:51 раз
Смотреть онлайн К югу от рая | Скачать    Ребята, помогите собрать деньги на оплату серверов!!!

10-03-2022 18:52 К югу от рая Скачать торрент  


К югу от рая / До самой смерти / South of Heaven
Информация о фильме:
Название: К югу от рая / До самой смерти
Оригинальное название: South of Heaven
Год выхода: 2021
Жанр: триллер, драма, криминал
Режиссер: Ахарон Кешалес
В ролях: Джейсон Судейкис, Эванджелин Лилли, Майк Колтер, Шей Уигэм, Джереми Бобб, Амори Ноласко, Thaddeus J. Mixson, Майкл Паре, Хайме Севальос, Тина Паркер

Описание: Отсидев 12 лет за вооруженное ограбление, Джимми выходит на свободу. Он клянётся умирающей от рака бывшей возлюбленной сделать последний год её жизни лучшим. Но, как быстро выясняется, выполнить это обещание не так просто.



Страна: США
Студия: Arts District Entertainment, Good Wizard, Media Finance Capital, Swiss Avenue Pictures
Продолжительность: 01:59:45
Перевод: Дублированный - Кинопоиск HD



Информация о файле:
Кодек: AVC
Формат: MKV
Качество: BDRip-AVC | South of Heaven (2021) BDRemux 1080p
Видео: MPEG-4 AVC, 1024x436, 23.976 fps, 2000 kb/s
Аудио RU: AC3, 6 ch, 48 kHz, 448 kbps
Аудио EN: AC3, 6 ch, 48 kHz, 448 kbps
Субтитры: Русские (Full), английские

x264 info: frame I:1162 Avg QP:13.70 size: 70311
x264 info: frame P:32732 Avg QP:16.39 size: 21848
x264 info: frame B:138396 Avg QP:17.56 size: 7214
General
Unique ID : 132359688368205128787483589919414869044 (0x63938C794B6BC53DFA15225C891ADC34)
Complete name : D:uTorrentРипы wolf1245South of Heaven.2021.DUB.KHD.BDRip-AVC.[wolf1245.ExKinoRay].mkv
Format : Matroska
Format version : Version 4
File size : 2.42 GiB
Duration : 1 h 59 min
Overall bit rate : 2 893 kb/s
Movie name : South of Heaven.2021.DUB.KHD.BDRip-AVC.[wolf1245.ExKinoRay]
Encoded date : UTC 2022-03-10 18:28:45
Writing application : mkvmerge v65.0.0 ('Too Much') 64-bit
Writing library : libebml v1.4.2 + libmatroska v1.6.4

Video
ID : 1
Format : AVC
Format/Info : Advanced Video Codec
Format profile : High@L4.1
Format settings : CABAC / 12 Ref Frames
Format settings, CABAC : Yes
Format settings, Reference frames : 12 frames
Codec ID : V_MPEG4/ISO/AVC
Duration : 1 h 59 min
Bit rate : 2 000 kb/s
Width : 1 024 pixels
Height : 436 pixels
Display aspect ratio : 2.35:1
Frame rate mode : Constant
Frame rate : 23.976 (24000/1001) FPS
Color space : YUV
Chroma subsampling : 4:2:0
Bit depth : 8 bits
Scan type : Progressive
Bits/(Pixel*Frame) : 0.187
Stream size : 1.67 GiB (69%)
Title : -=[wolf1245.ExKinoRay]=-
Writing library : x264 core 163 r3060 5db6aa6
Encoding settings : cabac=1 / ref=12 / deblock=1:-3:-2 / analyse=0x3:0x133 / me=umh / subme=10 / psy=1 / psy_rd=1.02:0.10 / mixed_ref=1 / me_range=32 / chroma_me=1 / trellis=2 / 8x8dct=1 / cqm=0 / deadzone=22,11 / fast_pskip=1 / chroma_qp_offset=-3 / threads=10 / lookahead_threads=2 / sliced_threads=0 / nr=0 / decimate=0 / interlaced=0 / bluray_compat=0 / constrained_intra=0 / bframes=10 / b_pyramid=2 / b_adapt=2 / b_bias=0 / direct=3 / weightb=1 / open_gop=0 / weightp=2 / keyint=240 / keyint_min=24 / scenecut=40 / intra_refresh=0 / rc_lookahead=60 / rc=2pass / mbtree=0 / bitrate=2000 / ratetol=1.0 / qcomp=0.60 / qpmin=0 / qpmax=69 / qpstep=4 / cplxblur=20.0 / qblur=0.5 / vbv_maxrate=50000 / vbv_bufsize=62500 / nal_hrd=none / filler=0 / ip_ratio=1.40 / pb_ratio=1.30 / aq=1:1.00
Language : English
Default : Yes
Forced : No
Color range : Limited
Color primaries : BT.709
Transfer characteristics : BT.709
Matrix coefficients : BT.709

Audio #1
ID : 2
Format : AC-3
Format/Info : Audio Coding 3
Commercial name : Dolby Digital
Codec ID : A_AC3
Duration : 1 h 59 min
Bit rate mode : Constant
Bit rate : 448 kb/s
Channel(s) : 6 channels
Channel layout : L R C LFE Ls Rs
Sampling rate : 48.0 kHz
Frame rate : 31.250 FPS (1536 SPF)
Compression mode : Lossy
Stream size : 384 MiB (15%)
Title : DUB | KHD | RUS
Language : Russian
Service kind : Complete Main
Default : Yes
Forced : Yes

Audio #2
ID : 3
Format : AC-3
Format/Info : Audio Coding 3
Commercial name : Dolby Digital
Codec ID : A_AC3
Duration : 1 h 59 min
Bit rate mode : Constant
Bit rate : 448 kb/s
Channel(s) : 6 channels
Channel layout : L R C LFE Ls Rs
Sampling rate : 48.0 kHz
Frame rate : 31.250 FPS (1536 SPF)
Compression mode : Lossy
Stream size : 384 MiB (15%)
Title : Original | ENG
Language : English
Service kind : Complete Main
Default : Yes
Forced : No

Text #1
ID : 4
Format : UTF-8
Codec ID : S_TEXT/UTF8
Codec ID/Info : UTF-8 Plain Text
Duration : 1 h 58 min
Bit rate : 67 b/s
Count of elements : 1193
Stream size : 58.1 KiB (0%)
Title : Full
Language : Russian
Default : No
Forced : No

Text #2
ID : 5
Format : UTF-8
Codec ID : S_TEXT/UTF8
Codec ID/Info : UTF-8 Plain Text
Duration : 1 h 55 min
Bit rate : 46 b/s
Count of elements : 1414
Stream size : 39.6 KiB (0%)
Title : Full
Language : English
Default : No
Forced : No

Text #3
ID : 6
Format : UTF-8
Codec ID : S_TEXT/UTF8
Codec ID/Info : UTF-8 Plain Text
Duration : 1 h 59 min
Bit rate : 55 b/s
Count of elements : 1782
Stream size : 48.8 KiB (0%)
Title : SDH
Language : English
Default : No
Forced : No

Menu
00:00:00.000 : :Chapter 01
00:14:47.720 : :Chapter 02
00:30:47.846 : :Chapter 03
00:46:39.839 : :Chapter 04
00:58:41.226 : :Chapter 05
01:14:39.308 : :Chapter 06
01:32:09.023 : :Chapter 07
01:56:54.633 : :Chapter 08
Релиз от:

Автор релиза:
pb.wtf



Скачать К югу от рая через торрент https://i116.fastpic.org/big/2022/0310/60/102f49fc0639f013c43949aa4e801060.jpg Скачать, смотреть онлайн К югу от рая бесплантно в хорошем качестве Описание: Отсидев 12 лет за вооруженное ограбление, Джимми выходит на свободу. Он клянётся умирающей от рака бывшей возлюбленной сделать ... 10 10 1
Торрент: Зарегистрирован [2022-03-10 18:52] · скачан: 51 раз
Статус: √ проверено
Размер: 2.42 GB
Как cкачать? Как скачать К югу от рая через торрент | UTorrent

28-11-2019 20:33  

Отключить всю рекламу на сайте

    Дорогой пользователь! Огромная просьба, поблагодарите релизера, оцените раздачу и оставьте свои комментарий, если Вы скачали К югу от рая через торрент бесплатно!
    Комментировать посты могут только пользователи прошедшие не сложную регистрацию
    Показать сообщения:    

    К югу от рая через торрент
    Скачать бесплатно К югу от рая
    К югу от рая скачать торрент
    К югу от рая смотреть онлайн
    Cкачать фильм К югу от рая бесплатно
    К югу от рая скачать торрент в хорошем качестве
    К югу от рая смотреть онлайн бесплатно в хорошем качестве


    Вы не можете начинать темы
    Вы не можете отвечать на сообщения
    Вы не можете редактировать свои сообщения
    Вы не можете удалять свои сообщения
    Вы не можете голосовать в опросах
    Вы не можете прикреплять файлы к сообщениям
    Вы можете скачивать файлы