Всегда рабочее зеркало без VPN и Proxy просто перед .vidak.icu напиши любое слово или цифру, Пример http://w5x7.vidak.icu

MVO

MVO

1 сезон

1

1 сезон

iTunes

1 сезон

13

1 сезон

Deluxe

pack

Рекомендуем

Repack

30

ВАЖНО

RePack

MK11

RePack

jed

RePack

fifa19

RePack

RDR2

RePack

NEED FOR SPEED™ PAYBACK

Кинопоиск HD

6 сезон

 Острые козырьки 6 сезон

Все сериалы

все сериалы на PB.wtf

RePack

FAR CRY 5
  
Magnet ссылка

Лулу и Бриггс / Dog (Рид Каролин, Ченнинг Татум) [2022, Комедия, драма, приключения, UHD WEB-DL-HEVC 2160p] DUB [Кинопоиск HD] pb.wtf

Лулу и Бриггс через торрент pb.wtf

Раздают: 4 [ 30 KB/s ]
Размер: 11.05 GB | Добавлен: 3 мес. 19 д. назад | Торрент скачан:60 раз
Смотреть онлайн Лулу и Бриггс | Скачать    Ребята, помогите собрать деньги на оплату серверов!!!

12-03-2022 18:20 Лулу и Бриггс Скачать торрент  

Лулу и Бриггс
Dog

Год выпуска: 2022
Страна: США
Выпущено: CAA Media Finance, FilmNation Entertainment, Free Association, Metro-Goldwyn-Mayer (MGM)
Жанр: Комедия, драма, приключения
Продолжительность: 01:41:51
Перевод: Дублированный | Кинопоиск HD
Субтитры: Русские (Full), английские

Режиссер: Рид Каролин, Ченнинг Татум

rating

В ролях: еннинг Татум, Кейден Бойд, Акилла Золл, Патриция Исаак, Ронни Джин Блевинс, Скайлер Джой, Нерэйда Бега, Аманда Бут, Том Бейер, Трент Бакстон

Описание: Профессиональный военный Джексон Бриггс всеми силами пытается вернуться в строй, но из-за травмы головы получает постоянные отказы. Когда умирает один из его сослуживцев, Бриггсу дают задание: с военной базы в штате Вашингтон доставить на похороны в аризонский Ногалес боевую подругу почившего — нервную бельгийскую овчарку Лулу с целым спектром посттравматических расстройств. Поскольку собака боится летать, сделать это придётся на машине по Тихоокеанскому побережью, и эта поездка будет не самым простым заданием Бриггса.

Качество: UHD WEB-DL-HEVC 2160p
Формат: MKV

Видео: 3840x1592 at 23.976 fps, MPEG-H HEVC HDR Video ~ 14100 kbps avg
Аудио #01: 48 kHz, AC3, 5.1, 448 Kbps | Дублированный | Кинопоиск HD | RUS |
Аудио #02: 48 kHz, E-AC3, 5.1, 448 Kbps | Дублированный | Кинопоиск HD | RUS |
Аудио #03: 48 kHz, E-AC3, 5.1, 640 Kbps | Оригинал | ENG |
скриншот  скриншот  скриншот  скриншот  скриншот  

General
Unique ID : 85623374417132385606626910830028951327 (0x406A764A6994CE4105B08F8A8B108F1F)
Complete name : D:Video1Dog.2022.WEB-DL.2160p.HDR.seleZen.mkv
Format : Matroska
Format version : Version 4
File size : 11.0 GiB
Duration : 1 h 41 min
Overall bit rate : 15.5 Mb/s
Movie name : Dog 2022 from seleZen
Encoded date : UTC 2022-04-18 21:33:54
Writing application : mkvmerge v59.0.0 ('Shining Star') 64-bit
Writing library : libebml v1.4.2 + libmatroska v1.6.4

Video
ID : 1
Format : HEVC
Format/Info : High Efficiency Video Coding
Format profile : Main [email protected]@High
HDR format : SMPTE ST 2086, HDR10 compatible
Codec ID : V_MPEGH/ISO/HEVC
Duration : 1 h 41 min
Bit rate : 14.1 Mb/s
Width : 3 840 pixels
Height : 1 592 pixels
Display aspect ratio : 2.40:1
Frame rate mode : Constant
Frame rate : 23.976 FPS
Color space : YUV
Chroma subsampling : 4:2:0 (Type 2)
Bit depth : 10 bits
Bits/(Pixel*Frame) : 0.096
Stream size : 9.96 GiB (90%)
Language : English
Default : Yes
Forced : No
Color range : Limited
Color primaries : BT.2020
Transfer characteristics : PQ
Matrix coefficients : BT.2020 non-constant
Mastering display color pri : BT.2020
Mastering display luminance : min: 0.0050 cd/m2, max: 1000 cd/m2
Maximum Content Light Level : 1137 cd/m2
Maximum Frame-Average Light : 308 cd/m2

Audio #1
ID : 2
Format : AC-3
Format/Info : Audio Coding 3
Commercial name : Dolby Digital
Codec ID : A_AC3
Duration : 1 h 41 min
Bit rate mode : Constant
Bit rate : 448 kb/s
Channel(s) : 6 channels
Channel layout : L R C LFE Ls Rs
Sampling rate : 48.0 kHz
Frame rate : 31.250 FPS (1536 SPF)
Compression mode : Lossy
Stream size : 324 MiB (3%)
Title : Dub
Language : Russian
Service kind : Complete Main
Default : Yes
Forced : Yes

Audio #2
ID : 3
Format : E-AC-3
Format/Info : Enhanced AC-3
Commercial name : Dolby Digital Plus
Codec ID : A_EAC3
Duration : 1 h 41 min
Bit rate mode : Constant
Bit rate : 448 kb/s
Channel(s) : 6 channels
Channel layout : L R C LFE Ls Rs
Sampling rate : 48.0 kHz
Frame rate : 31.250 FPS (1536 SPF)
Compression mode : Lossy
Stream size : 324 MiB (3%)
Title : Dub
Language : Russian
Service kind : Complete Main
Default : No
Forced : No

Audio #3
ID : 4
Format : E-AC-3
Format/Info : Enhanced AC-3
Commercial name : Dolby Digital Plus
Codec ID : A_EAC3
Duration : 1 h 41 min
Bit rate mode : Constant
Bit rate : 640 kb/s
Channel(s) : 6 channels
Channel layout : L R C LFE Ls Rs
Sampling rate : 48.0 kHz
Frame rate : 31.250 FPS (1536 SPF)
Compression mode : Lossy
Stream size : 466 MiB (4%)
Title : Original
Language : English
Service kind : Complete Main
Default : No
Forced : No

Text #1
ID : 5
Format : UTF-8
Codec ID : S_TEXT/UTF8
Codec ID/Info : UTF-8 Plain Text
Duration : 1 h 35 min
Bit rate : 98 b/s
Count of elements : 1594
Stream size : 69.1 KiB (0%)
Title : Full
Language : Russian
Default : No
Forced : No

Text #2
ID : 6
Format : UTF-8
Codec ID : S_TEXT/UTF8
Codec ID/Info : UTF-8 Plain Text
Duration : 1 h 33 min
Bit rate : 82 b/s
Count of elements : 1858
Stream size : 56.7 KiB (0%)
Title : Full
Language : English
Default : No
Forced : No

Text #3
ID : 7
Format : UTF-8
Codec ID : S_TEXT/UTF8
Codec ID/Info : UTF-8 Plain Text
Duration : 1 h 38 min
Bit rate : 85 b/s
Count of elements : 1960
Stream size : 62.0 KiB (0%)
Title : SDH
Language : English
Default : No
Forced : No

pb.wtf



Скачать Лулу и Бриггс через торрент https://i117.fastpic.org/big/2022/0419/ff/381b2f0ac7194b802f1394bc6d7667ff.jpg Скачать, смотреть онлайн Лулу и Бриггс бесплантно в хорошем качестве Описание: Профессиональный военный Джексон Бриггс всеми силами пытается вернуться в строй, но из-за травмы головы получает постоянные ... 10 10 12
Info! Золотая раздача, скачанное не засчитывается.
Торрент: Зарегистрирован [2022-04-18 23:07] · скачан: 60 раз
Статус: √ проверено
Размер: 11.05 GB
Как cкачать? Как скачать Лулу и Бриггс через торрент | UTorrent

% Раздел Тема Автор DL S | L
Фильмы 2022 [DVDrip, WEB-DLRip, HDrip] (DUB, MVO) [ 711 MB ] Лулу и Бриггс / Dog [2022 HDRip "KP HD"] coc900 Скачать
4 | 0
Фильмы (Blu-ray, BD-Remux, HDDVD) [ 19.05 GB ] Лулу и Бриггс / Dog [2022 BD Remux 1080p] DUB [Кинопоиск HD] bober100 Скачать
3 | 0
Фильмы [HD 720p, 1080p] (Хороший звук DUB, MVO) [ 4.01 GB ] Лулу и Бриггс / Dog [2022 BDRip 720p] DUB [Кинопоиск HD] bober100 Скачать
7 | 0
Ultra HD (UHD: 2K, 4K, 8K) — видео сверхвысокой чёткости [ 15.33 GB ] Лулу и Бриггс / Dog [2022 UHD WEB-DL-HEVC 2160p ] DUB [Кинопоиск HD] +MVO [Jaskier] bober100 Скачать
2 | 0
Фильмы (WEB-DL 720p, 1080p) [ 6.55 GB ] Лулу и Бриггс / Dog [2022 WEB-DL 1080p] DUB [Мосфильм-Мастер / Line] +MVO [Jaskier] bober100 Скачать
10 | 0
Фильмы [HD 720p, 1080p] (Хороший звук DUB, MVO) [ 9.95 GB ] Лулу и Бриггс / Dog [2022 BDRip 1080p] DUB [Кинопоиск HD] bober100 Скачать
5 | 1
Фильмы 2022 [DVDrip, WEB-DLRip, HDrip] (DUB, MVO) [ 2.27 GB ] Лулу и Бриггс / Dog [2022 WEB-DLRip-AVC] DUB MVO [Кинопоиск HD Jaskier] от ExKinoRay Lithuania Скачать
5 | 0

28-11-2019 20:33  

Отключить вcю реклaмy на сайте

    Дорогой пользователь! Огромная просьба, поблагодарите релизера, оцените раздачу и оставьте свои комментарий, если Вы скачали Лулу и Бриггс через торрент бесплатно!
    Комментировать посты могут только пользователи прошедшие не сложную регистрацию
    Показать сообщения:    

    Лулу и Бриггс через торрент
    Скачать бесплатно Лулу и Бриггс
    Лулу и Бриггс скачать торрент
    Лулу и Бриггс смотреть онлайн
    Cкачать фильм Лулу и Бриггс бесплатно
    Лулу и Бриггс скачать торрент в хорошем качестве
    Лулу и Бриггс смотреть онлайн бесплатно в хорошем качестве


    Вы не можете начинать темы
    Вы не можете отвечать на сообщения
    Вы не можете редактировать свои сообщения
    Вы не можете удалять свои сообщения
    Вы не можете голосовать в опросах
    Вы не можете прикреплять файлы к сообщениям
    Вы можете скачивать файлы