Достать ножи: Стеклянная луковица

MVO

Добыча

Дубляж

Уэнсдэй

1 сезон

Тор

Дубляж

13 клиническая

1 сезон

Жестокая ночь

MVO

Одни из нас

1 сезон

Deluxe

pack

Рекомендуем

30

Пиратка

ВАЖНО

ВАЖНО

Ghostwire

Пиратка

jed

RePack

nioh2

RePack

RDR2

RePack

NEED FOR SPEED™ PAYBACK

RePack

скачать торрент

Кинопоиск HD

Острые козырьки 6 сезон

6 сезон

FAR CRY 6

RePack

скачать торрент

Лицензия

скачать торрент

MVO

1

1 сезон

скачать торрент

1 сезон

скачать торрент

Лицензия

  

Человек-паук: Антология / Spider-Man: Antology [2002-2014, США, фантастика, боевик, приключения, BDRip - HEVC 1080p 10 bit 60 FPS, Дубляж, DVO]

Человек-паук: Антология через торрент pb.wtf

Качают: 1 [ 0 KB/s ]
Размер: 20.33 GB | Добавлен: 10 мес. назад | Торрент скачан:33 раза
| Скачать | Поддержите нас   

13-03-2022 20:06 Человек-паук: Антология Скачать торрент  

Spider-Man: Antology


Spider-Man
«Turn your world upside down»

Год выпуска: 2002
Страна: США
Жанр: фантастика, боевик, приключения
Продолжительность: 02:01:12
Перевод: Дублированный |
Субтитры: русские
Режиссер: Сэм Рэйми / Sam Raimi
В ролях: Тоби Магуайр (Spider-Man / Peter Parker), Уиллем Дефо (Green Goblin / Norman Osborn), Кирстен Данст (Mary Jane Watson), Джеймс Франко (Harry Osborn), Клифф Робертсон (Ben Parker), Розмари Харрис (May Parker), Дж.К. Симмонс (J. Jonah Jameson), Джо Манганьелло (Flash Thompson), Майкл Пападжон (Carjacker), Билл Нанн (Joseph «Robbie» Robertson), Джерри Бекер (Maximilian Fargas), Джек Беттс (Henry Balkan)
Описание: Питер Паркер – обыкновенный школьник. Однажды он отправился с классом на экскурсию, где его кусает странный паук-мутант. Через время парень почувствовал в себе нечеловеческую силу и ловкость в движении, а главное – умение лазать по стенам и метать стальную паутину. Свои способности он направляет на защиту слабых. Так Питер становится настоящим супергероем по имени Человек-паук, который помогает людям и борется с преступностью. Но там, где есть супергерой, рано или поздно всегда объявляется и суперзлодей...
Мировая премьера: 30 апреля 2002

Качество: BDRip 1080p Rip by DD2D3
Формат: MKV
Видео: V_MPEGH/ISO/HEVC; 1920x1040 (1.85:1); 3573 Kbps; 59,880 fps; 0,030 bpp
Аудио: русский; AC3; 640 Kbps; CBR; 6 ch ||
Навигация по главам: есть
Доп. инфо: нет


Общее
Уникальный идентификатор : 226889120670146536247559280327404204421 (0xAAB14151DDCD9FF5907EAAB43F46B185)
Полное имя : D:\Spider-Man Antology (2002 - 2014) BDRip - HEVC 1080p 10 bit 60 FPS\Spider-Man (2002) BDRip - HEVC 1080p 10 bit 60 FPS.mkv
Формат : Matroska
Версия формата : Version 2
Размер файла : 3,64 Гбайт
Продолжительность : 2 ч. 1 м.
Общий поток : 4 299 Кбит/сек
Название фильма : Rip by from DD2D3
Дата кодирования : UTC 2022-02-27 19:23:36
Программа кодирования : mkvmerge v7.8.0 ('River Man') 32bit built on Apr 3 2015 12:11:22
Библиотека кодирования : libebml v1.3.1 + libmatroska v1.4.2
Attachments : poster

Видео
Идентификатор : 1
Формат : HEVC
Формат/Информация : High Efficiency Video Coding
Профиль формата : Main [email protected]@Main
Идентификатор кодека : V_MPEGH/ISO/HEVC
Продолжительность : 2 ч. 1 м.
Битрейт : 3 573 Кбит/сек
Ширина : 1 920 пикселей
Высота : 1 040 пикселей
Соотношение сторон : 1,85:1
Режим частоты кадров : Постоянный
Частота кадров : 59,880 кадров/сек
Цветовое пространство : YUV
Субдискретизация насыщенности : 4:2:0
Битовая глубина : 10 бит
Бит/(Пиксели*Кадры) : 0.030
Размер потока : 3,03 Гбайт (83%)
Библиотека кодирования : x265 3.5+20-17839cc0d:[Windows][GCC 11.2.0][64 bit] 10bit
Настройки программы : cpuid=1111039 / frame-threads=2 / numa-pools=4 / wpp / no-pmode / no-pme / no-psnr / no-ssim / log-level=2 / input-csp=1 / input-res=1920x1040 / interlace=0 / total-frames=435499 / level-idc=41 / high-tier=1 / uhd-bd=0 / ref=3 / no-allow-non-conformance / no-repeat-headers / annexb / no-aud / no-eob / no-eos / no-hrd / info / hash=0 / no-temporal-layers / open-gop / min-keyint=5 / keyint=240 / gop-lookahead=0 / bframes=4 / b-adapt=2 / b-pyramid / bframe-bias=0 / rc-lookahead=20 / lookahead-slices=6 / scenecut=40 / no-hist-scenecut / radl=0 / no-splice / no-intra-refresh / ctu=64 / min-cu-size=8 / no-rect / no-amp / max-tu-size=8 / tu-inter-depth=1 / tu-intra-depth=1 / limit-tu=0 / rdoq-level=0 / dynamic-rd=0.00 / no-ssim-rd / signhide / no-tskip / nr-intra=0 / nr-inter=0 / no-constrained-intra / strong-intra-smoothing / max-merge=3 / limit-refs=1 / no-limit-modes / me=2 / subme=5 / merange=57 / temporal-mvp / no-frame-dup / no-hme / weightp / no-weightb / no-analyze-src-pics / deblock=0:0 / no-sao / no-sao-non-deblock / rd=3 / selective-sao=0 / early-skip / no-rskip / no-fast-intra / no-tskip-fast / no-cu-lossless / b-intra / no-splitrd-skip / rdpenalty=0 / psy-rd=4.00 / psy-rdoq=0.00 / no-rd-refine / no-lossless / cbqpoffs=-2 / crqpoffs=-2 / rc=abr / bitrate=3650 / qcomp=0.60 / qpstep=1 / stats-write=0 / stats-read=2 / cplxblur=20.0 / qblur=0.5 / ipratio=1.10 / pbratio=1.00 / aq-mode=0 / aq-strength=0.00 / no-cutree / zone-count=0 / no-strict-cbr / qg-size=64 / rc-grain / qpmax=69 / qpmin=0 / const-vbv / sar=1 / overscan=0 / videoformat=5 / range=0 / colorprim=1 / transfer=1 / colormatrix=1 / chromaloc=0 / display-window=0 / cll=0,0 / min-luma=0 / max-luma=1023 / log2-max-poc-lsb=8 / vui-timing-info / vui-hrd-info / slices=1 / no-opt-qp-pps / no-opt-ref-list-length-pps / no-multi-pass-opt-rps / scenecut-bias=0.05 / hist-threshold=0.03 / no-opt-cu-delta-qp / no-aq-motion / no-hdr10 / no-hdr10-opt / no-dhdr10-opt / no-idr-recovery-sei / analysis-reuse-level=0 / analysis-save-reuse-level=0 / analysis-load-reuse-level=0 / scale-factor=0 / refine-intra=0 / refine-inter=0 / refine-mv=1 / refine-ctu-distortion=0 / no-limit-sao / ctu-info=0 / no-lowpass-dct / refine-analysis-type=0 / copy-pic=1 / max-ausize-factor=1.0 / no-dynamic-refine / no-single-sei / no-hevc-aq / no-svt / no-field / qp-adaptation-range=1.00 / scenecut-aware-qp=0conformance-window-offsets / right=0 / bottom=0 / decoder-max-rate=0 / no-vbv-live-multi-pass
Default : Да
Forced : Нет
Цветовой диапазон : Limited
Основные цвета : BT.709
Характеристики трансфера : BT.709
Коэффициенты матрицы : BT.709

Аудио
Идентификатор : 2
Формат : AC-3
Формат/Информация : Audio Coding 3
Коммерческое название : Dolby Digital
Идентификатор кодека : A_AC3
Продолжительность : 2 ч. 1 м.
Вид битрейта : Постоянный
Битрейт : 640 Кбит/сек
Каналы : 6 каналов
Channel layout : L R C LFE Ls Rs
Частота : 48,0 КГц
Частота кадров : 31,250 кадров/сек (1536 SPF)
Метод сжатия : С потерями
Размер потока : 555 Мбайт (15%)
Заголовок : Дубляж
Язык : Russian
Service kind : Complete Main
Default : Да
Forced : Нет

Текст
Идентификатор : 3
Формат : UTF-8
Идентификатор кодека : S_TEXT/UTF8
Идентификатор кодека/Информация : UTF-8 Plain Text
Заголовок : Rus full
Язык : Russian
Default : Нет
Forced : Нет

Меню
00:00:00.000 : en:
00:06:29.472 : en:
00:09:22.895 : en:
00:14:56.186 : en:
00:17:50.652 : en:
00:21:53.603 : en:
00:23:28.615 : en:
00:25:18.766 : en:
00:34:35.114 : en:
00:40:22.169 : en:
00:41:44.126 : en:
00:43:13.882 : en:
00:44:40.010 : en:
00:54:32.978 : en:
00:55:52.556 : en:
01:00:48.936 : en:
01:04:20.773 : en:
01:05:57.036 : en:
01:12:12.369 : en:
01:14:18.871 : en:
01:15:48.669 : en:
01:19:35.520 : en:
01:22:06.463 : en:
01:25:13.608 : en:
01:30:39.225 : en:
01:39:36.679 : en:
01:45:08.385 : en:
01:50:27.829 : en:

© Оформление by DD2D3
Spider-Man 2
«Take Another Spin In IMAX»

Год выпуска: 2004
Страна: США
Жанр: фантастика, боевик, приключения

Продолжительность: 02:07:36
Перевод: Дублированный |
Перевод: Профессиональный двухголосый закадровый | Tycoon Studio
Субтитры: русские | Tycoon Studio

Режиссер: Сэм Рэйми / Sam Raimi
В ролях: Тоби Магуайр (Spider-Man / Peter Parker), Кирстен Данст (Mary Jane Watson), Джеймс Франко (Harry Osborn), Альфред Молина (Doc Ock / Dr. Otto Octavius), Розмари Харрис (May Parker), Дж.К. Симмонс (J. Jonah Jameson), Донна Мерфи (Rosalie Octavius), Дэниэл Гиллис (John Jameson), Дилан Бейкер (Dr. Curt Connors), Билл Нанн (Joseph «Robbie» Robertson), Ванесса Ферлито (Louise), Аасиф Мандви (Mr. Aziz)
Описание: Тихоня Питер Паркер балансирует на грани двух своих жизней: супергероя Человека-паука и обычного студента колледжа. Его отношения со всеми, кто ему дорог, в опасности или зашли в тупик. А жизнь приготовила ему новое испытание. Он должен использовать все свои суперспособности, чтобы одолеть жестокого безумца доктора Отто Октавиуса.
Мировая премьера: 25 июня 2004


Качество: WEB-DLRip 1080p Rip by DD2D3
Формат: MKV
Видео: V_MPEGH/ISO/HEVC; 1920x1080 (16:9); 3665 Kbps; 59,940 fps; 0,029 bpp
Аудио: русский; AC3; 640 Kbps; CBR; 6 ch ||
Аудио: русский; AC3; 640 Kbps; CBR; 6 ch ||
Навигация по главам: есть
Доп. инфо: Open Matte


Общее
Уникальный идентификатор : 202655637097018265283853012371630065139 (0x98760E554183A5D894E7CD89813205F3)
Полное имя : D:\Spider-Man Antology (2002 - 2014) BDRip - HEVC 1080p 10 bit 60 FPS\Spider-Man 2 (2004) [Open Matte] BDRip - HEVC 1080p 10 bit 60 FPS.mkv
Формат : Matroska
Версия формата : Version 2
Размер файла : 4,15 Гбайт
Продолжительность : 2 ч. 7 м.
Общий поток : 4 655 Кбит/сек
Название фильма : Rip by from DD2D3
Дата кодирования : UTC 2022-02-25 13:11:59
Программа кодирования : mkvmerge v7.8.0 ('River Man') 32bit built on Apr 3 2015 12:11:22
Библиотека кодирования : libebml v1.3.1 + libmatroska v1.4.2
Attachments : poster

Видео
Идентификатор : 1
Формат : HEVC
Формат/Информация : High Efficiency Video Coding
Профиль формата : Main [email protected]@Main
Идентификатор кодека : V_MPEGH/ISO/HEVC
Продолжительность : 2 ч. 7 м.
Битрейт : 3 666 Кбит/сек
Ширина : 1 920 пикселей
Высота : 1 080 пикселей
Соотношение сторон : 16:9
Режим частоты кадров : Постоянный
Частота кадров : 59,940 (60000/1001) кадров/сек
Цветовое пространство : YUV
Субдискретизация насыщенности : 4:2:0
Битовая глубина : 10 бит
Бит/(Пиксели*Кадры) : 0.029
Размер потока : 3,27 Гбайт (79%)
Библиотека кодирования : x265 3.5+20-17839cc0d:[Windows][GCC 11.2.0][64 bit] 10bit
Настройки программы : cpuid=1111039 / frame-threads=2 / numa-pools=4 / wpp / no-pmode / no-pme / no-psnr / no-ssim / log-level=2 / input-csp=1 / input-res=1920x1080 / interlace=0 / total-frames=458846 / level-idc=41 / high-tier=1 / uhd-bd=0 / ref=3 / no-allow-non-conformance / no-repeat-headers / annexb / no-aud / no-eob / no-eos / no-hrd / info / hash=0 / no-temporal-layers / open-gop / min-keyint=5 / keyint=240 / gop-lookahead=0 / bframes=4 / b-adapt=2 / b-pyramid / bframe-bias=0 / rc-lookahead=20 / lookahead-slices=6 / scenecut=40 / no-hist-scenecut / radl=0 / no-splice / no-intra-refresh / ctu=64 / min-cu-size=8 / no-rect / no-amp / max-tu-size=8 / tu-inter-depth=1 / tu-intra-depth=1 / limit-tu=0 / rdoq-level=0 / dynamic-rd=0.00 / no-ssim-rd / signhide / no-tskip / nr-intra=0 / nr-inter=0 / no-constrained-intra / strong-intra-smoothing / max-merge=3 / limit-refs=1 / no-limit-modes / me=1 / subme=5 / merange=57 / temporal-mvp / no-frame-dup / no-hme / weightp / no-weightb / no-analyze-src-pics / deblock=0:0 / no-sao / no-sao-non-deblock / rd=3 / selective-sao=0 / early-skip / no-rskip / no-fast-intra / no-tskip-fast / no-cu-lossless / b-intra / no-splitrd-skip / rdpenalty=0 / psy-rd=4.00 / psy-rdoq=0.00 / no-rd-refine / no-lossless / cbqpoffs=-2 / crqpoffs=-2 / rc=abr / bitrate=3750 / qcomp=0.60 / qpstep=1 / stats-write=0 / stats-read=2 / cplxblur=20.0 / qblur=0.5 / ipratio=1.10 / pbratio=1.00 / aq-mode=0 / aq-strength=0.00 / no-cutree / zone-count=0 / no-strict-cbr / qg-size=64 / rc-grain / qpmax=69 / qpmin=0 / const-vbv / sar=1 / overscan=0 / videoformat=5 / range=0 / colorprim=1 / transfer=1 / colormatrix=1 / chromaloc=0 / display-window=0 / cll=0,0 / min-luma=0 / max-luma=1023 / log2-max-poc-lsb=8 / vui-timing-info / vui-hrd-info / slices=1 / no-opt-qp-pps / no-opt-ref-list-length-pps / no-multi-pass-opt-rps / scenecut-bias=0.05 / hist-threshold=0.03 / no-opt-cu-delta-qp / no-aq-motion / no-hdr10 / no-hdr10-opt / no-dhdr10-opt / no-idr-recovery-sei / analysis-reuse-level=0 / analysis-save-reuse-level=0 / analysis-load-reuse-level=0 / scale-factor=0 / refine-intra=0 / refine-inter=0 / refine-mv=1 / refine-ctu-distortion=0 / no-limit-sao / ctu-info=0 / no-lowpass-dct / refine-analysis-type=0 / copy-pic=1 / max-ausize-factor=1.0 / no-dynamic-refine / no-single-sei / no-hevc-aq / no-svt / no-field / qp-adaptation-range=1.00 / scenecut-aware-qp=0conformance-window-offsets / right=0 / bottom=0 / decoder-max-rate=0 / no-vbv-live-multi-pass
Default : Да
Forced : Нет
Цветовой диапазон : Limited
Основные цвета : BT.709
Характеристики трансфера : BT.709
Коэффициенты матрицы : BT.709

Аудио #1
Идентификатор : 2
Формат : AC-3
Формат/Информация : Audio Coding 3
Коммерческое название : Dolby Digital
Идентификатор кодека : A_AC3
Продолжительность : 2 ч. 7 м.
Вид битрейта : Постоянный
Битрейт : 448 Кбит/сек
Каналы : 6 каналов
Channel layout : L R C LFE Ls Rs
Частота : 48,0 КГц
Частота кадров : 31,250 кадров/сек (1536 SPF)
Метод сжатия : С потерями
Размер потока : 409 Мбайт (10%)
Заголовок : Дубляж, BluRay CEE
Язык : Russian
Service kind : Complete Main
Default : Да
Forced : Нет
Statistics Tags Issue : mkvmerge v8.3.0 ('Over the Horizon') 64bit 2017-07-22 14:08:25 / mkvmerge v7.8.0 ('River Man') 32bit built on Apr 3 2015 12:11:22 2022-02-25 13:11:59
FromStats_BitRate : 448000
FromStats_Duration : 02:07:36.128000000
FromStats_FrameCount : 239254
FromStats_StreamSize : 428743168

Аудио #2
Идентификатор : 3
Формат : AC-3
Формат/Информация : Audio Coding 3
Коммерческое название : Dolby Digital
Идентификатор кодека : A_AC3
Продолжительность : 2 ч. 7 м.
Вид битрейта : Постоянный
Битрейт : 448 Кбит/сек
Каналы : 6 каналов
Channel layout : L R C LFE Ls Rs
Частота : 48,0 КГц
Частота кадров : 31,250 кадров/сек (1536 SPF)
Метод сжатия : С потерями
Размер потока : 409 Мбайт (10%)
Заголовок : Профессиональный, двухголосый, Tycoon Studio
Язык : Russian
Service kind : Complete Main
Default : Нет
Forced : Нет

Текст
Идентификатор : 4
Формат : UTF-8
Идентификатор кодека : S_TEXT/UTF8
Идентификатор кодека/Информация : UTF-8 Plain Text
Заголовок : Tycoon Studio
Язык : Russian
Default : Нет
Forced : Нет

Меню
00:00:00.000 : en:Studio Logos
00:00:31.000 : en:Opening Credits
00:03:11.000 : en:Peter's Job Is on the Line; Multiple Locations
00:04:35.000 : en:Peter Rushes to Make the Delivery; Multiple Locations
00:05:57.000 : en:Peter Loses His Job; Multiple Locations
00:07:32.000 : en:Peter Sells His Photographs; Daily Bugle
00:09:02.000 : en:Peter Races to Class; University
00:10:15.000 : en:Peter's Friends Surprise Him; Parker House
00:12:31.000 : en:May Expresses Her Longing to be with Ben; Parker House
00:14:38.000 : en:Peter Hides His Feelings for Mary Jane; Front Yard
00:17:16.000 : en:Mr. Ditkovich Approches Peter about Rent; Apartment Building
00:18:40.000 : en:Peter interviews Dr. Octavius; Oscorp
00:22:22.000 : en:Peter Gets Ready for Mary Jane's Show; Multiple Locations
00:24:29.000 : en:Peter Gets Caught Up Fighting Crime; Street
00:26:04.000 : en:Peter Is Denied Entry to the Theater; Ivar Theatre
00:27:16.000 : en:Peter Sees Mary Jane after the Show; Street
00:29:44.000 : en:Spider-Man Takes the Elevator; Multiple locations
00:31:13.000 : en:Peter Leaves a Message for Mary Jane; Multiple Locations
00:33:20.000 : en:Peter Attends Dr. Octavius's Demonstration; Oscorp
00:39:17.000 : en:Injured People Are Rushed to the Hospital; Street
00:40:00.000 : en:Doctors Attempt to Remove the Arms from Octavious; Hospital
00:43:19.000 : en:Jameson Names the New Villian; Daily Bugle
00:44:48.000 : en:Doc Ock Asseses His SItuation; Ock's Lair
00:47:06.000 : en:Peter and May Try to Get a Loan; Bank
00:50:10.000 : en:Spider-Man and Doc Ock Fight; Multiple Locations
00:53:11.000 : en:Peter Takes Pictures at the Science Event; Planetarium
00:55:16.000 : en:Mary Jane Dismisses Peter; Planetarium
00:58:15.000 : en:Peter Is Upset and Doc Ock Works in His Lab; Multiple Locations
01:00:13.000 : en:Peter Visits a Doctor; Clinic
01:01:39.000 : en:Peter Remembers Ben's Advice; Multiple Locations
01:03:51.000 : en:Peter Returns to His Pre-Spider-Man Lifestyle; Multiple Locations
01:05:34.000 : en:Peter Attends Mary Jane's Play; Multiple Locations
01:08:24.000 : en:Jonah Receives an Amazing Gift; Daily Bugle
01:09:48.000 : en:Peter Tells May the Truth; Multiple Locations
01:13:58.000 : en:Doc Ock Pays Harry a Visit; Multiple Locations
01:16:52.000 : en:Peter Rushes to the Rescue; Bulding
01:19:26.000 : en:Peter Doubts His Decision; Peter's Apartment
01:21:34.000 : en:May Gives Peter Words of Encouragement; May's Front Yard
01:25:26.000 : en:Peter Tries to Get Back His Powers; Rooftop
01:26:59.000 : en:Mary Jane Goes Over Wedding RSVP's; John's House
01:28:21.000 : en:Peter Tells Mary Jane His Feelings; Restuarant
01:33:15.000 : en:Peter Reclaims His Suit; Daily Bugle
01:34:07.000 : en:Spider-Man and Doc Ock Face Off; Multiple Locations
01:37:41.000 : en:Spider-Man Saves the Passengers; Train
01:42:48.000 : en:Doc Ock Brings His Bargaining Chip; Harry's House
01:45:03.000 : en:Spider-Man Tries to Save Mary Jane; Ock's Lair
01:48:13.000 : en:Spider-Man Reasons with Doc Ock; Ock's Lair
01:51:45.000 : en:Peter Saves Mary Jane; Ock's Lair
01:55:38.000 : en:Harry Has Visions of His Father; Harry's House
01:58:07.000 : en:Mary Jane Makes a Tough Decision; Church
01:59:38.000 : en:Mary Jane Makes a Confession to Peter; Peter's Apartment
02:02:56.000 : en:End Credits

Spider-Man 3
«Next summer, the greatest battle lies... within»

Год выпуска: 2007
Страна: США
Жанр: фантастика, боевик, приключения
Продолжительность: 02:19:12
Перевод: Дублированный |
Субтитры: русские
Режиссер: Сэм Рэйми / Sam Raimi
В ролях: Тоби Магуайр (Spider-Man / Peter Parker), Кирстен Данст (Mary Jane Watson), Джеймс Франко (New Goblin / Harry Osborn), Томас Хейден Чёрч (Sandman / Flint Marko), Тофер Грейс (Venom / Eddie Brock), Брайс Даллас Ховард (Gwen Stacy), Розмари Харрис (May Parker), Дж.К. Симмонс (J. Jonah Jameson), Джеймс Кромуэлл (Captain Stacy), Илья Баскин (Mr. Ditkovitch), Билл Нанн (Joseph «Robbie» Robertson), Элизабет Бэнкс (Miss Brant)
Описание: Прошло пять лет с тех пор, как Питер осознал, что «с Великой силой приходит Великая ответственность!», и три года с тех пор, как он отказался быть борцом за справедливость. Но сейчас кажется, Питер прекрасно научился жить несколькими жизнями. Он хорошо учится, Нью-Йорк признал его героем, отношения с Мэри Джейн прочные. Питер даже намеревается сделать ей предложение!

Но к сожалению, его лучший друг Гарри Озборн по-прежнему считает, что именно Человек-паук несет ответственность за безвременную кончину его отца. Гарри намеревается отомстить ему в образе Нового Гоблина. В то же самое время на криминальной сцене Нью-Йорка появляется другой могущественный суперзлодей, известный как Песочный Человек.

Когда Человек-паук надевает таинственный черный костюм, его темная, более мстительная сторона полностью поглощает его. Эти трансформации заставляют его встретиться с самым сильным противником ― с самим собой…
Мировая премьера: 3 апреля 2007

Качество: WEB-DLRip 1080p Rip by DD2D3
Формат: MKV
Видео: V_MPEGH/ISO/HEVC; 1920x1080 (16:9); 3671 Kbps; 59,940 fps; 0,030 bpp
Аудио: русский; AC3; 640 Kbps; CBR; 6 ch ||
Навигация по главам: есть
Доп. инфо: Open Matte


Общее
Уникальный идентификатор : 250119672101480072733961669458859730812 (0xBC2B4BEF2930B69F882A8D176501277C)
Полное имя : D:\Spider-Man Antology (2002 - 2014) BDRip - HEVC 1080p 10 bit 60 FPS\Spider-Man 3 (2007) [Open Matte] BDRip - HEVC 1080p 10 bit 60 FPS.mkv
Формат : Matroska
Версия формата : Version 2
Размер файла : 4,28 Гбайт
Продолжительность : 2 ч. 19 м.
Общий поток : 4 399 Кбит/сек
Название фильма : Rip by from DD2D3
Дата кодирования : UTC 2022-02-26 19:49:06
Программа кодирования : mkvmerge v7.8.0 ('River Man') 32bit built on Apr 3 2015 12:11:22
Библиотека кодирования : libebml v1.3.1 + libmatroska v1.4.2
Attachments : poster

Видео
Идентификатор : 1
Формат : HEVC
Формат/Информация : High Efficiency Video Coding
Профиль формата : Main [email protected]@Main
Идентификатор кодека : V_MPEGH/ISO/HEVC
Продолжительность : 2 ч. 19 м.
Битрейт : 3 671 Кбит/сек
Ширина : 1 920 пикселей
Высота : 1 080 пикселей
Соотношение сторон : 16:9
Режим частоты кадров : Постоянный
Частота кадров : 59,940 (60000/1001) кадров/сек
Цветовое пространство : YUV
Субдискретизация насыщенности : 4:2:0
Битовая глубина : 10 бит
Бит/(Пиксели*Кадры) : 0.030
Размер потока : 3,57 Гбайт (83%)
Библиотека кодирования : x265 3.5+20-17839cc0d:[Windows][GCC 11.2.0][64 bit] 10bit
Настройки программы : cpuid=1111039 / frame-threads=2 / numa-pools=4 / wpp / no-pmode / no-pme / no-psnr / no-ssim / log-level=2 / input-csp=1 / input-res=1920x1080 / interlace=0 / total-frames=500636 / level-idc=41 / high-tier=1 / uhd-bd=0 / ref=3 / no-allow-non-conformance / no-repeat-headers / annexb / no-aud / no-eob / no-eos / no-hrd / info / hash=0 / no-temporal-layers / open-gop / min-keyint=5 / keyint=240 / gop-lookahead=0 / bframes=4 / b-adapt=2 / b-pyramid / bframe-bias=0 / rc-lookahead=20 / lookahead-slices=6 / scenecut=40 / no-hist-scenecut / radl=0 / no-splice / no-intra-refresh / ctu=64 / min-cu-size=8 / no-rect / no-amp / max-tu-size=8 / tu-inter-depth=1 / tu-intra-depth=1 / limit-tu=0 / rdoq-level=0 / dynamic-rd=0.00 / no-ssim-rd / signhide / no-tskip / nr-intra=0 / nr-inter=0 / no-constrained-intra / strong-intra-smoothing / max-merge=3 / limit-refs=1 / no-limit-modes / me=1 / subme=5 / merange=57 / temporal-mvp / no-frame-dup / no-hme / weightp / no-weightb / no-analyze-src-pics / deblock=0:0 / no-sao / no-sao-non-deblock / rd=3 / selective-sao=0 / early-skip / no-rskip / no-fast-intra / no-tskip-fast / no-cu-lossless / b-intra / no-splitrd-skip / rdpenalty=0 / psy-rd=4.00 / psy-rdoq=0.00 / no-rd-refine / no-lossless / cbqpoffs=-2 / crqpoffs=-2 / rc=abr / bitrate=3750 / qcomp=0.60 / qpstep=1 / stats-write=0 / stats-read=2 / cplxblur=20.0 / qblur=0.5 / ipratio=1.10 / pbratio=1.00 / aq-mode=0 / aq-strength=0.00 / no-cutree / zone-count=0 / no-strict-cbr / qg-size=64 / rc-grain / qpmax=69 / qpmin=0 / const-vbv / sar=1 / overscan=0 / videoformat=5 / range=0 / colorprim=1 / transfer=1 / colormatrix=1 / chromaloc=0 / display-window=0 / cll=0,0 / min-luma=0 / max-luma=1023 / log2-max-poc-lsb=8 / vui-timing-info / vui-hrd-info / slices=1 / no-opt-qp-pps / no-opt-ref-list-length-pps / no-multi-pass-opt-rps / scenecut-bias=0.05 / hist-threshold=0.03 / no-opt-cu-delta-qp / no-aq-motion / no-hdr10 / no-hdr10-opt / no-dhdr10-opt / no-idr-recovery-sei / analysis-reuse-level=0 / analysis-save-reuse-level=0 / analysis-load-reuse-level=0 / scale-factor=0 / refine-intra=0 / refine-inter=0 / refine-mv=1 / refine-ctu-distortion=0 / no-limit-sao / ctu-info=0 / no-lowpass-dct / refine-analysis-type=0 / copy-pic=1 / max-ausize-factor=1.0 / no-dynamic-refine / no-single-sei / no-hevc-aq / no-svt / no-field / qp-adaptation-range=1.00 / scenecut-aware-qp=0conformance-window-offsets / right=0 / bottom=0 / decoder-max-rate=0 / no-vbv-live-multi-pass
Default : Да
Forced : Нет
Цветовой диапазон : Limited
Основные цвета : BT.709
Характеристики трансфера : BT.709
Коэффициенты матрицы : BT.709

Аудио
Идентификатор : 2
Формат : AC-3
Формат/Информация : Audio Coding 3
Коммерческое название : Dolby Digital
Идентификатор кодека : A_AC3
Продолжительность : 2 ч. 19 м.
Вид битрейта : Постоянный
Битрейт : 640 Кбит/сек
Каналы : 6 каналов
Channel layout : L R C LFE Ls Rs
Частота : 48,0 КГц
Частота кадров : 31,250 кадров/сек (1536 SPF)
Метод сжатия : С потерями
Размер потока : 637 Мбайт (15%)
Заголовок : Дубляж
Язык : Russian
Service kind : Complete Main
Default : Да
Forced : Нет

Текст
Идентификатор : 3
Формат : UTF-8
Идентификатор кодека : S_TEXT/UTF8
Идентификатор кодека/Информация : UTF-8 Plain Text
Заголовок : full
Язык : Russian
Default : Нет
Forced : Нет
Statistics Tags Issue : mkvmerge v7.9.0 ('Birds') 64bit 2020-08-23 00:28:23 / mkvmerge v7.8.0 ('River Man') 32bit built on Apr 3 2015 12:11:22 2022-02-26 19:49:06
FromStats_BitRate : 61
FromStats_Duration : 02:08:37.231000000
FromStats_FrameCount : 1144
FromStats_StreamSize : 59152

Меню
00:00:00.000 : en:Main Titles
00:07:59.813 : en:The Goblin's Lair
00:16:55.056 : en:Peter vs. Harry
00:24:44.983 : en:Some Memory Impairment
00:30:12.686 : en:The Review
00:40:08.531 : en:Welcome Home Harry!
00:49:24.587 : en:Armored Car
00:59:27.773 : en:We Were Wrong
01:06:34.574 : en:Bank Robbery
01:15:23.436 : en:Calling A Woman
01:22:16.723 : en:It's Over
01:30:17.829 : en:Dirt In Your Eye
01:40:46.374 : en:The Bell Tower
01:49:10.836 : en:City In Crisis
01:59:57.148 : en:Film's Extra
02:06:11.355 : en:I Didn't Want This

The Amazing Spider-Man
«Новый герой, новая история, новая любовь»

Год выпуска: 2012
Страна: США
Жанр: фантастика, боевик, приключения

Продолжительность: 02:16:25
Перевод: Дублированный |
Субтитры: русские |

Режиссер: Марк Уэбб / Marc Webb
В ролях: Эндрю Гарфилд (Spider-Man / Peter Parker), Эмма Стоун (Gwen Stacy), Рис Иванс (The Lizard / Dr. Curt Connors), Дэнис Лири (Captain Stacy), Мартин Шин (Uncle Ben), Салли Филд (Aunt May), Эмбет Дэвидц (Mary Parker), Кэмпбелл Скотт (Richard Parker), Ирфан Кхан (Rajit Ratha), Крис Зилка (Flash Thompson), Макс Чарльз (Peter Parker (Age 4)), Си Томас Хауэлл (Jack's Father)
Описание: Опасаясь, что действия богоподобного супергероя так и останутся бесконтрольными, грозный и могущественный страж Готэм Сити бросает вызов самому почитаемому в наши дни спасителю Метрополиса, в то время как весь остальной мир решает, какой герой ему по-настоящему нужен. И пока Бэтмен и Супермен пребывают в состоянии войны друг с другом, возникает новая угроза, которая ставит человечество под самую большую опасность, с которой оно когда-либо сталкивалось.

Мировая премьера: 12 марта 2016

Качество: WEB-DLRip 1080p Rip by DD2D3
Формат: MKV
Видео: V_MPEGH/ISO/HEVC; 1920x1080 (16:9); 3625 Kbps; 59,940 fps; 0,029 bpp
Аудио: русский; AC3; 448 Kbps; CBR; 6 ch ||
Навигация по главам: есть
Доп. информация: Open Matte


Общее
Уникальный идентификатор : 228248721006765443768620510988438961410 (0xABB71ACAB3F55AFAB099A0090D017D02)
Полное имя : D:\Spider-Man Antology (2002 - 2014) BDRip - HEVC 1080p 10 bit 60 FPS\The Amazing Spider-Man (2012) [Open Matte] WEB-DLRip - HEVC 1080p 10 bit 60 FPS.mkv
Формат : Matroska
Версия формата : Version 2
Размер файла : 3,96 Гбайт
Продолжительность : 2 ч. 16 м.
Общий поток : 4 156 Кбит/сек
Название фильма : Rip by from DD2D3
Дата кодирования : UTC 2022-03-04 10:13:02
Программа кодирования : mkvmerge v7.8.0 ('River Man') 32bit built on Apr 3 2015 12:11:22
Библиотека кодирования : libebml v1.3.1 + libmatroska v1.4.2
Attachments : poster

Видео
Идентификатор : 1
Формат : HEVC
Формат/Информация : High Efficiency Video Coding
Профиль формата : Main [email protected]@Main
Идентификатор кодека : V_MPEGH/ISO/HEVC
Продолжительность : 2 ч. 16 м.
Битрейт : 3 626 Кбит/сек
Ширина : 1 920 пикселей
Высота : 1 080 пикселей
Соотношение сторон : 16:9
Режим частоты кадров : Постоянный
Частота кадров : 59,940 (60000/1001) кадров/сек
Цветовое пространство : YUV
Субдискретизация насыщенности : 4:2:0
Битовая глубина : 10 бит
Бит/(Пиксели*Кадры) : 0.029
Размер потока : 3,45 Гбайт (87%)
Библиотека кодирования : x265 3.5+20-17839cc0d:[Windows][GCC 11.2.0][64 bit] 10bit
Настройки программы : cpuid=1111039 / frame-threads=2 / numa-pools=4 / wpp / no-pmode / no-pme / no-psnr / no-ssim / log-level=2 / input-csp=1 / input-res=1920x1080 / interlace=0 / total-frames=490611 / level-idc=41 / high-tier=1 / uhd-bd=0 / ref=3 / no-allow-non-conformance / no-repeat-headers / annexb / no-aud / no-eob / no-eos / no-hrd / info / hash=0 / no-temporal-layers / open-gop / min-keyint=5 / keyint=240 / gop-lookahead=0 / bframes=4 / b-adapt=2 / b-pyramid / bframe-bias=0 / rc-lookahead=20 / lookahead-slices=6 / scenecut=40 / no-hist-scenecut / radl=0 / no-splice / no-intra-refresh / ctu=64 / min-cu-size=8 / no-rect / no-amp / max-tu-size=8 / tu-inter-depth=1 / tu-intra-depth=1 / limit-tu=0 / rdoq-level=0 / dynamic-rd=0.00 / no-ssim-rd / signhide / no-tskip / nr-intra=0 / nr-inter=0 / no-constrained-intra / strong-intra-smoothing / max-merge=3 / limit-refs=1 / no-limit-modes / me=1 / subme=5 / merange=57 / temporal-mvp / no-frame-dup / no-hme / weightp / no-weightb / no-analyze-src-pics / deblock=0:0 / no-sao / no-sao-non-deblock / rd=3 / selective-sao=0 / early-skip / no-rskip / no-fast-intra / no-tskip-fast / no-cu-lossless / b-intra / no-splitrd-skip / rdpenalty=0 / psy-rd=4.00 / psy-rdoq=0.00 / no-rd-refine / no-lossless / cbqpoffs=-2 / crqpoffs=-2 / rc=abr / bitrate=3700 / qcomp=0.60 / qpstep=1 / stats-write=0 / stats-read=2 / cplxblur=20.0 / qblur=0.5 / ipratio=1.10 / pbratio=1.00 / aq-mode=0 / aq-strength=0.00 / no-cutree / zone-count=0 / no-strict-cbr / qg-size=64 / rc-grain / qpmax=69 / qpmin=0 / const-vbv / sar=1 / overscan=0 / videoformat=5 / range=0 / colorprim=1 / transfer=1 / colormatrix=1 / chromaloc=0 / display-window=0 / cll=0,0 / min-luma=0 / max-luma=1023 / log2-max-poc-lsb=8 / vui-timing-info / vui-hrd-info / slices=1 / no-opt-qp-pps / no-opt-ref-list-length-pps / no-multi-pass-opt-rps / scenecut-bias=0.05 / hist-threshold=0.03 / no-opt-cu-delta-qp / no-aq-motion / no-hdr10 / no-hdr10-opt / no-dhdr10-opt / no-idr-recovery-sei / analysis-reuse-level=0 / analysis-save-reuse-level=0 / analysis-load-reuse-level=0 / scale-factor=0 / refine-intra=0 / refine-inter=0 / refine-mv=1 / refine-ctu-distortion=0 / no-limit-sao / ctu-info=0 / no-lowpass-dct / refine-analysis-type=0 / copy-pic=1 / max-ausize-factor=1.0 / no-dynamic-refine / no-single-sei / no-hevc-aq / no-svt / no-field / qp-adaptation-range=1.00 / scenecut-aware-qp=0conformance-window-offsets / right=0 / bottom=0 / decoder-max-rate=0 / no-vbv-live-multi-pass
Default : Да
Forced : Нет
Цветовой диапазон : Limited
Основные цвета : BT.709
Характеристики трансфера : BT.709
Коэффициенты матрицы : BT.709

Аудио
Идентификатор : 2
Формат : AC-3
Формат/Информация : Audio Coding 3
Коммерческое название : Dolby Digital
Идентификатор кодека : A_AC3
Продолжительность : 2 ч. 16 м.
Вид битрейта : Постоянный
Битрейт : 448 Кбит/сек
Каналы : 6 каналов
Channel layout : L R C LFE Ls Rs
Частота : 48,0 КГц
Частота кадров : 31,250 кадров/сек (1536 SPF)
Метод сжатия : С потерями
Размер потока : 437 Мбайт (11%)
Заголовок : Дубляж
Язык : Russian
Service kind : Complete Main
Default : Да
Forced : Нет
Statistics Tags Issue : mkvmerge v8.3.0 ('Over the Horizon') 32bit 2020-11-09 18:46:43 / mkvmerge v7.8.0 ('River Man') 32bit built on Apr 3 2015 12:11:22 2022-03-04 10:13:02
FromStats_BitRate : 448000
FromStats_Duration : 02:16:16.608000000
FromStats_FrameCount : 255519
FromStats_StreamSize : 457890048

Текст
Идентификатор : 3
Формат : UTF-8
Идентификатор кодека : S_TEXT/UTF8
Идентификатор кодека/Информация : UTF-8 Plain Text
Заголовок : full
Язык : Russian
Default : Нет
Forced : Нет
Statistics Tags Issue : mkvmerge v8.3.0 ('Over the Horizon') 32bit 2020-11-09 18:46:43 / mkvmerge v7.8.0 ('River Man') 32bit built on Apr 3 2015 12:11:22 2022-03-04 10:13:02
FromStats_BitRate : 68
FromStats_Duration : 02:09:14.839000000
FromStats_FrameCount : 1524
FromStats_StreamSize : 66580

The Amazing Spider-Man 2
«Нет больше тайн»

Год выпуска: 2014
Страна: США
Жанр: фантастика, боевик, приключения
Продолжительность: 02:21:34
Перевод: Дублированный |
Субтитры: русские |

Режиссер: Марк Уэбб / Marc Webb
В ролях: Эндрю Гарфилд (Spider-Man / Peter Parker), Эмма Стоун (Gwen Stacy), Джейми Фокс (Electro / Max Dillon), Дэйн ДеХаан (Green Goblin / Harry Osborn), Салли Филд (Aunt May), Колм Фиор (Donald Menken), Фелисити Джонс (Felicia), Пол Джаматти (Aleksei Sytsevich), Мартон Чокаш (Dr. Ashley Kafka), Кэмпбелл Скотт (Richard Parker), Эмбет Дэвидц (Mary Parker), Крис Купер (Norman Osborn, в титрах не указан)
Описание: Питер Паркер под маской Человека-паука по-прежнему спасает мир от злодеев и преступников, а свободное время проводит со своей возлюбленной Гвен, но школьная пора близится к концу, и впереди героев ждет взрослая жизнь. Питер помнит о том, что дал отцу Гвен слово навсегда уйти из жизни девушки, тем самым больше не подвергая ее опасности. Однако сдержать это обещание не так просто. Судьба готовит Питеру сюрпризы: на его пути появится новый противник — Электро, а также ему будет суждено вновь встретиться с давним приятелем Гарри Озборном и узнать много нового о прошлом своей семьи.
Мировая премьера: 10 апреля 2014

Качество: BDRip 1080p Rip by DD2D3
Формат: MKV
Видео: V_MPEGH/ISO/HEVC; 1920x804 (2.40:1); 3622 Kbps; 59,940 fps; 0,039 bpp
Аудио: русский; AC3; 640 Kbps; CBR; 6 ch ||
Навигация по главам: есть
Доп. информация: нет



Общее
Уникальный идентификатор : 171743253524813433814014471329638784125 (0x81348C270F191B04A7A02A0F38241C7D)
Полное имя : D:\Spider-Man Antology (2002 - 2014) BDRip - HEVC 1080p 10 bit 60 FPS\The Amazing Spider-Man 2 (2014) BDRip - HEVC 1080p 10bit 60 FPS.mkv
Формат : Matroska
Версия формата : Version 2
Размер файла : 4,30 Гбайт
Продолжительность : 2 ч. 21 м.
Общий поток : 4 349 Кбит/сек
Название фильма : Rip by from DD2D3
Дата кодирования : UTC 2022-03-06 17:56:36
Программа кодирования : mkvmerge v7.8.0 ('River Man') 32bit built on Apr 3 2015 12:11:22
Библиотека кодирования : libebml v1.3.1 + libmatroska v1.4.2
Attachments : poster

Видео
Идентификатор : 1
Формат : HEVC
Формат/Информация : High Efficiency Video Coding
Профиль формата : Main [email protected]@Main
Идентификатор кодека : V_MPEGH/ISO/HEVC
Продолжительность : 2 ч. 21 м.
Битрейт : 3 623 Кбит/сек
Ширина : 1 920 пикселей
Высота : 804 пикселя
Соотношение сторон : 2,40:1
Режим частоты кадров : Постоянный
Частота кадров : 59,940 (60000/1001) кадров/сек
Цветовое пространство : YUV
Субдискретизация насыщенности : 4:2:0
Битовая глубина : 10 бит
Бит/(Пиксели*Кадры) : 0.039
Размер потока : 3,58 Гбайт (83%)
Библиотека кодирования : x265 3.5+20-17839cc0d:[Windows][GCC 11.2.0][64 bit] 10bit
Настройки программы : cpuid=1111039 / frame-threads=2 / numa-pools=4 / wpp / no-pmode / no-pme / no-psnr / no-ssim / log-level=2 / input-csp=1 / input-res=1920x804 / interlace=0 / total-frames=509176 / level-idc=41 / high-tier=1 / uhd-bd=0 / ref=3 / no-allow-non-conformance / no-repeat-headers / annexb / no-aud / no-eob / no-eos / no-hrd / info / hash=0 / no-temporal-layers / open-gop / min-keyint=5 / keyint=240 / gop-lookahead=0 / bframes=4 / b-adapt=2 / b-pyramid / bframe-bias=0 / rc-lookahead=20 / lookahead-slices=5 / scenecut=40 / no-hist-scenecut / radl=0 / no-splice / no-intra-refresh / ctu=64 / min-cu-size=8 / no-rect / no-amp / max-tu-size=8 / tu-inter-depth=1 / tu-intra-depth=1 / limit-tu=0 / rdoq-level=0 / dynamic-rd=0.00 / no-ssim-rd / signhide / no-tskip / nr-intra=0 / nr-inter=0 / no-constrained-intra / strong-intra-smoothing / max-merge=3 / limit-refs=1 / no-limit-modes / me=1 / subme=6 / merange=57 / temporal-mvp / no-frame-dup / no-hme / weightp / no-weightb / no-analyze-src-pics / deblock=0:0 / no-sao / no-sao-non-deblock / rd=3 / selective-sao=0 / early-skip / no-rskip / no-fast-intra / no-tskip-fast / no-cu-lossless / b-intra / no-splitrd-skip / rdpenalty=0 / psy-rd=4.00 / psy-rdoq=0.00 / no-rd-refine / no-lossless / cbqpoffs=-2 / crqpoffs=-2 / rc=abr / bitrate=3700 / qcomp=0.60 / qpstep=1 / stats-write=0 / stats-read=2 / cplxblur=20.0 / qblur=0.5 / ipratio=1.10 / pbratio=1.00 / aq-mode=0 / aq-strength=0.00 / no-cutree / zone-count=0 / no-strict-cbr / qg-size=64 / rc-grain / qpmax=69 / qpmin=0 / const-vbv / sar=1 / overscan=0 / videoformat=5 / range=0 / colorprim=1 / transfer=1 / colormatrix=1 / chromaloc=0 / display-window=0 / cll=0,0 / min-luma=0 / max-luma=1023 / log2-max-poc-lsb=8 / vui-timing-info / vui-hrd-info / slices=1 / no-opt-qp-pps / no-opt-ref-list-length-pps / no-multi-pass-opt-rps / scenecut-bias=0.05 / hist-threshold=0.03 / no-opt-cu-delta-qp / no-aq-motion / no-hdr10 / no-hdr10-opt / no-dhdr10-opt / no-idr-recovery-sei / analysis-reuse-level=0 / analysis-save-reuse-level=0 / analysis-load-reuse-level=0 / scale-factor=0 / refine-intra=0 / refine-inter=0 / refine-mv=1 / refine-ctu-distortion=0 / no-limit-sao / ctu-info=0 / no-lowpass-dct / refine-analysis-type=0 / copy-pic=1 / max-ausize-factor=1.0 / no-dynamic-refine / no-single-sei / no-hevc-aq / no-svt / no-field / qp-adaptation-range=1.00 / scenecut-aware-qp=0conformance-window-offsets / right=0 / bottom=0 / decoder-max-rate=0 / no-vbv-live-multi-pass
Default : Да
Forced : Нет
Цветовой диапазон : Limited
Основные цвета : BT.709
Характеристики трансфера : BT.709
Коэффициенты матрицы : BT.709

Аудио
Идентификатор : 2
Формат : AC-3
Формат/Информация : Audio Coding 3
Коммерческое название : Dolby Digital
Идентификатор кодека : A_AC3
Продолжительность : 2 ч. 21 м.
Вид битрейта : Постоянный
Битрейт : 640 Кбит/сек
Каналы : 6 каналов
Channel layout : L R C LFE Ls Rs
Частота : 48,0 КГц
Частота кадров : 31,250 кадров/сек (1536 SPF)
Метод сжатия : С потерями
Размер потока : 648 Мбайт (15%)
Заголовок : Дубляж
Язык : Russian
Service kind : Complete Main
Default : Да
Forced : Нет
Statistics Tags Issue : mkvmerge v8.0.0 ('Til The Day That I Die') 64bit 2016-11-19 15:17:45 / mkvmerge v7.8.0 ('River Man') 32bit built on Apr 3 2015 12:11:22 2022-03-06 17:56:36
FromStats_BitRate : 640000
FromStats_Duration : 02:21:34.752000000
FromStats_FrameCount : 265461
FromStats_StreamSize : 679580160

Текст
Идентификатор : 3
Формат : UTF-8
Идентификатор кодека : S_TEXT/UTF8
Идентификатор кодека/Информация : UTF-8 Plain Text
Заголовок : полные
Язык : Russian
Default : Нет
Forced : Нет
Statistics Tags Issue : mkvmerge v8.0.0 ('Til The Day That I Die') 64bit 2016-11-19 15:17:45 / mkvmerge v7.8.0 ('River Man') 32bit built on Apr 3 2015 12:11:22 2022-03-06 17:56:36
FromStats_BitRate : 78
FromStats_Duration : 02:13:46.901000000
FromStats_FrameCount : 1752
FromStats_StreamSize : 78871

Меню
00:00:00.000 : en:Chapter 1
00:07:05.341 : en:Chapter 2
00:14:28.200 : en:Chapter 3
00:20:13.837 : en:Chapter 4
00:29:27.098 : en:Chapter 5
00:39:02.590 : en:Chapter 6
00:50:56.803 : en:Chapter 7
00:59:52.755 : en:Chapter 8
01:08:53.129 : en:Chapter 9
01:16:19.950 : en:Chapter 10
01:25:27.705 : en:Chapter 11
01:35:23.259 : en:Chapter 12
01:41:30.334 : en:Chapter 13
01:49:18.343 : en:Chapter 14
01:57:00.638 : en:Chapter 15
02:04:44.351 : en:Chapter 16




Скачать Человек-паук: Антология через торрент https://i.postimg.cc/0Q2ZzKcM/collage-82-4-50-70-v-2-1536x1152.jpg Скачать, смотреть онлайн Человек-паук: Антология бесплантно в хорошем качестве Описание: Питер Паркер – обыкновенный школьник. Однажды он отправился с классом на экскурсию, где его кусает странный паук-мутант. Через ... 10 10 4
Торрент: Зарегистрирован [2022-03-13 20:06] · скачан: 33 раз
Статус: √ проверено
Размер: 20.33 GB
Как cкачать? Как скачать Человек-паук: Антология через торрент | UTorrent

% Раздел Тема Автор DL S | L
Сборники и Сиквелы (48-60 fps) [ 19.7 GB ] Человек-паук: Антология / Spider-Man: Antology [2002-2014, США, фантастика, боевик, приключения, BDRip-AVC 60fps, Дубляж | Дубляж | BDRip-AVC 60fps, Дубляж Tiberiumsun69 Скачать
2 | 0

28-11-2019 20:33  


Отключить вcю реклaмy на сайте, в т.ч. и в плеере онлайн просмотра!

18-03-2022 04:56 Человек-паук: Антология Скачать торрент  

re seed please



28-06-2022 09:15 Человек-паук: Антология Скачать торрент  

Эй, брат, почему ты не закодировал этот фильм на BluRay?



11-12-2022 08:01 Человек-паук: Антология Скачать торрент  

Встаньте на раздачу плиз!



16-12-2022 17:48 Человек-паук: Антология Скачать торрент  

Вторую неделю скачать не могу! зависло на 20%! Хэлп!



    Дорогой пользователь! Огромная просьба, поблагодарите релизера, оцените раздачу и оставьте свои комментарий, если Вы скачали Человек-паук: Антология через торрент бесплатно!!
    Комментировать посты могут только пользователи прошедшие не сложную регистрацию
    Показать сообщения:    


    Человек-паук: Антология через торрент
    Скачать бесплатно Человек-паук: Антология
    Человек-паук: Антология скачать торрент
    Человек-паук: Антология смотреть онлайн
    Cкачать фильм Человек-паук: Антология бесплатно
    Человек-паук: Антология скачать торрент в хорошем качестве
    Человек-паук: Антология смотреть онлайн бесплатно в хорошем качестве
    Вы не можете начинать темы
    Вы не можете отвечать на сообщения
    Вы не можете редактировать свои сообщения
    Вы не можете удалять свои сообщения
    Вы не можете голосовать в опросах
    Вы не можете прикреплять файлы к сообщениям
    Вы можете скачивать файлы
    Человек-паук: Антология / Spider-Man: Antology [2002-2014, США, фантастика, боевик, приключения, BDRip - HEVC 1080p 10 bit 60 FPS, Дубляж, DVO] смотреть онлайн, скачать торрент picoco.icu