Лицензия

MVO

1

1 сезон

Лицензия

Лицензия

13

MVO

1 сезон

Deluxe Edition

pack

Рекомендуем

30

Repack

ВАЖНО

ВАЖНО

Ghostwire

RePack

jed

RePack

fifa19

RePack

RDR2

RePack

NEED FOR SPEED™ PAYBACK

RePack

Кинопоиск HD

 Острые козырьки 6 сезон

6 сезон

FAR CRY 6

RePack

Лицензия

MVO

1

1 сезон

1 сезон

Лицензия

  

Аллея кошмаров / Nightmare Alley (Гильермо дель Торо) [2021, Триллер, драма, криминал, BDRip 1080p] DUB [Невафильм] +2xMVO [HDRezka Studio, Jaskier] +AVO [М. Чадов]

Аллея кошмаров через торрент pb.wtf

Раздают: 1 [ 0 KB/s ]
Размер: 16.07 GB | Добавлен: 3 мес. 16 д. назад | Торрент скачан:177 раз
Смотреть онлайн Аллея кошмаров | Скачать   

14-03-2022 04:03 Аллея кошмаров Скачать торрент  

Аллея кошмаров
Nightmare Alley

Год выпуска: 2021
Страна: США, Мексика
Студия: Double Dare You (DDY), Fox Searchlight Pictures, Searchlight Pictures, TSG Entertainment
Жанр: Триллер, драма, криминал
Продолжительность: 02:30:06
Перевод:
#1: Дублированный | Невафильм
#2: Профессиональный (многоголосый) | HDRezka Studio
#3: Профессиональный многоголосый | Jaskier
#4: Авторский | М. Чадов
Субтитры: Русские (Forced, full), английские

Режиссер: Гильермо дель Торо

rating

В ролях: Брэдли Купер, Тони Коллетт, Руни Мара, Кейт Бланшетт, Уиллем Дефо, Рон Перлман, Холт МакКаллани, Дэвид Стратэйрн, Джим Бивер, Мэри Стинберген, Марк Повинелли, Пол Андерсон, Тим Блэйк Нельсон, Ромина Пауэр, Клифтон Коллинз-мл., Дэвид Хьюлетт, Лара Джин Хоростецки, Линден Порко, Дрю Нельсон, Питер МакНилл, Сара Меннелл, Ричард Дженкинс

Описание: Ремейк нуарной «Аллеи кошмаров» 1947 года, герой которого — «ясновидящий», зарабатывающий на наивности публики. Однажды он знакомится с красивой женщиной, которая работает психоаналитиком. Вместе они создают непревзойденный тандем мошенников, однако вскоре удача изменяет им.

Качество: BDRip 1080p
Формат: MKV

Видео: MPEG-4 AVC, 1920x1038, 12.1 Mbit/s, 23.976 fps
Аудио #01: 48 kHz, AC3, 5.1, 384 Kbps | Дублированный | Невафильм | RUS |
Аудио #02: 48 kHz, AC3, 5.1, 448 Kbps | Профессиональный многоголосый | HDRezka Studio | RUS |
Аудио #03: 48 kHz, AC3, 5.1, 448 Kbps | Профессиональный многоголосый | Jaskier | RUS |
Аудио #04: 48 kHz, AC3, 5.1, 640 Kbps | Авторский | М. Чадов (cens.) | RUS |
Аудио #05: 48 kHz, AC3, 5.1, 640 Kbps | Авторский | М. Чадов (uncens.) | RUS |
Аудио #06: 48 kHz, AC3, 5.1, 640 Kbps | Оригинал | ENG |
скриншот  скриншот  скриншот  скриншот  скриншот  

General
Unique ID : 296138479911048874746964624672728436510 (0xDECA3255559FE385CAF5A294CF364F1E)
Complete name : E:Video1Nightmare.Alley.2021.BDRip.1080p.seleZen.mkv
Format : Matroska
Format version : Version 4
File size : 16.1 GiB
Duration : 2 h 30 min
Overall bit rate : 15.3 Mb/s
Movie name : Nightmare Alley 2021 from seleZen
Encoded date : UTC 2022-06-09 10:08:30
Writing application : mkvmerge v59.0.0 ('Shining Star') 64-bit
Writing library : libebml v1.4.2 + libmatroska v1.6.4

Video
ID : 1
Format : AVC
Format/Info : Advanced Video Codec
Format profile : [email protected]
Format settings : CABAC / 4 Ref Frames
Format settings, CABAC : Yes
Format settings, Reference : 4 frames
Codec ID : V_MPEG4/ISO/AVC
Duration : 2 h 30 min
Bit rate : 12.1 Mb/s
Width : 1 920 pixels
Height : 1 038 pixels
Display aspect ratio : 1.85:1
Frame rate mode : Constant
Frame rate : 23.976 (24000/1001) FPS
Color space : YUV
Chroma subsampling : 4:2:0
Bit depth : 8 bits
Scan type : Progressive
Bits/(Pixel*Frame) : 0.254
Stream size : 12.7 GiB (79%)
Title : MTeam
Writing library : x264 core 157 r2938 2b00a84 [email protected] Mod
Encoding settings : cabac=1 / ref=4 / deblock=1:-3:-3 / analyse=0x3:0x133 / me=umh / subme=10 / psy=1 / psy_rd=1.05:0.00 / mixed_ref=1 / me_range=32 / chroma_me=1 / trellis=2 / 8x8dct=1 / cqm=0 / deadzone=21,11 / fast_pskip=0 / chroma_qp_offset=-2 / threads=12 / lookahead_threads=2 / sliced_threads=0 / nr=0 / decimate=0 / interlaced=0 / bluray_compat=0 / constrained_intra=0 / bframes=8 / b_pyramid=2 / b_adapt=2 / b_bias=0 / direct=3 / weightb=1 / open_gop=0 / weightp=2 / keyint=250 / keyint_min=24 / scenecut=40 / intra_refresh=0 / rc_lookahead=250 / rc=crf / mbtree=0 / crf=16.8 / qcomp=0.60 / qpmin=0 / qpmax=69 / qpstep=4 / vbv_maxrate=62500 / vbv_bufsize=78125 / crf_max=0.0 / nal_hrd=none / filler=0 / ip_ratio=1.30 / pb_ratio=1.20 / aq=3:0.80
Language : English
Default : Yes
Forced : No
Color range : Limited
Color primaries : BT.709
Matrix coefficients : BT.709

Audio #1
ID : 2
Format : AC-3
Format/Info : Audio Coding 3
Commercial name : Dolby Digital
Codec ID : A_AC3
Duration : 2 h 30 min
Bit rate mode : Constant
Bit rate : 384 kb/s
Channel(s) : 6 channels
Channel layout : L R C LFE Ls Rs
Sampling rate : 48.0 kHz
Frame rate : 31.250 FPS (1536 SPF)
Compression mode : Lossy
Stream size : 413 MiB (3%)
Title : Dub
Language : Russian
Service kind : Complete Main
Default : Yes
Forced : Yes

Audio #2
ID : 3
Format : AC-3
Format/Info : Audio Coding 3
Commercial name : Dolby Digital
Codec ID : A_AC3
Duration : 2 h 30 min
Bit rate mode : Constant
Bit rate : 448 kb/s
Channel(s) : 6 channels
Channel layout : L R C LFE Ls Rs
Sampling rate : 48.0 kHz
Frame rate : 31.250 FPS (1536 SPF)
Compression mode : Lossy
Stream size : 481 MiB (3%)
Title : MVO [HDRezka Studio]
Language : Russian
Service kind : Complete Main
Default : No
Forced : No

Audio #3
ID : 4
Format : AC-3
Format/Info : Audio Coding 3
Commercial name : Dolby Digital
Codec ID : A_AC3
Duration : 2 h 30 min
Bit rate mode : Constant
Bit rate : 448 kb/s
Channel(s) : 6 channels
Channel layout : L R C LFE Ls Rs
Sampling rate : 48.0 kHz
Frame rate : 31.250 FPS (1536 SPF)
Compression mode : Lossy
Stream size : 481 MiB (3%)
Title : MVO [Jaskier]
Language : Russian
Service kind : Complete Main
Default : No
Forced : No

Audio #4
ID : 5
Format : AC-3
Format/Info : Audio Coding 3
Commercial name : Dolby Digital
Codec ID : A_AC3
Duration : 2 h 30 min
Bit rate mode : Constant
Bit rate : 640 kb/s
Channel(s) : 6 channels
Channel layout : L R C LFE Ls Rs
Sampling rate : 48.0 kHz
Frame rate : 31.250 FPS (1536 SPF)
Bit depth : 16 bits
Compression mode : Lossy
Stream size : 687 MiB (4%)
Title : AVO [Chadov] - cens.
Language : Russian
Service kind : Complete Main
Default : No
Forced : No

Audio #5
ID : 6
Format : AC-3
Format/Info : Audio Coding 3
Commercial name : Dolby Digital
Codec ID : A_AC3
Duration : 2 h 30 min
Bit rate mode : Constant
Bit rate : 640 kb/s
Channel(s) : 6 channels
Channel layout : L R C LFE Ls Rs
Sampling rate : 48.0 kHz
Frame rate : 31.250 FPS (1536 SPF)
Bit depth : 16 bits
Compression mode : Lossy
Stream size : 687 MiB (4%)
Title : AVO [Chadov] - uncens.
Language : Russian
Service kind : Complete Main
Default : No
Forced : No

Audio #6
ID : 7
Format : AC-3
Format/Info : Audio Coding 3
Commercial name : Dolby Digital
Codec ID : A_AC3
Duration : 2 h 30 min
Bit rate mode : Constant
Bit rate : 640 kb/s
Channel(s) : 6 channels
Channel layout : L R C LFE Ls Rs
Sampling rate : 48.0 kHz
Frame rate : 31.250 FPS (1536 SPF)
Compression mode : Lossy
Stream size : 687 MiB (4%)
Title : Original
Language : English
Service kind : Complete Main
Default : No
Forced : No

Text #1
ID : 8
Format : UTF-8
Codec ID : S_TEXT/UTF8
Codec ID/Info : UTF-8 Plain Text
Duration : 2 h 7 min
Bit rate : 0 b/s
Count of elements : 9
Stream size : 338 Bytes (0%)
Title : Forced [HDRezka Studio]
Language : Russian
Default : Yes
Forced : Yes

Text #2
ID : 9
Format : UTF-8
Codec ID : S_TEXT/UTF8
Codec ID/Info : UTF-8 Plain Text
Duration : 2 h 19 min
Bit rate : 88 b/s
Count of elements : 1913
Stream size : 90.3 KiB (0%)
Title : Full [FOCS]
Language : Russian
Default : No
Forced : No

Text #3
ID : 10
Format : UTF-8
Codec ID : S_TEXT/UTF8
Codec ID/Info : UTF-8 Plain Text
Duration : 2 h 19 min
Bit rate : 54 b/s
Count of elements : 1916
Stream size : 55.3 KiB (0%)
Title : Full
Language : English
Default : No
Forced : No

Menu
00:00:00.000 : Chapter 01
00:06:01.611 : Chapter 02
00:08:32.387 : Chapter 03
00:14:11.392 : Chapter 04
00:18:53.507 : Chapter 05
00:22:54.748 : Chapter 06
00:29:34.231 : Chapter 07
00:34:22.269 : Chapter 08
00:41:27.318 : Chapter 09
00:50:50.089 : Chapter 10
01:00:07.395 : Chapter 11
01:10:43.156 : Chapter 12
01:18:20.362 : Chapter 13
01:27:15.856 : Chapter 14
01:38:15.473 : Chapter 15
01:47:08.589 : Chapter 16
01:52:52.933 : Chapter 17
01:58:58.757 : Chapter 18
02:05:42.618 : Chapter 19
02:14:06.789 : Chapter 20
02:20:56.990 : Chapter 21




Скачать Аллея кошмаров через торрент https://i2-imageban-ru.translate.goog/out/2022/03/16/2cc2b73cbbbecbaed83726a49df3f9cd.png Скачать, смотреть онлайн Аллея кошмаров бесплантно в хорошем качестве Описание: Ремейк нуарной «Аллеи кошмаров» 1947 года, герой которого — «ясновидящий», зарабатывающий на наивности публики. Однажды он ... 9.6 10 13
Info! Золотая раздача, скачанное не засчитывается.
Торрент: Зарегистрирован [2022-06-09 16:03] · скачан: 177 раз
Статус: √ проверено
Размер: 16.07 GB
Как cкачать? Как скачать Аллея кошмаров через торрент | UTorrent

% Раздел Тема Автор DL S | L
Фильмы (HD 720p, 1080p) (48-60 fps) [ 7.86 GB ] Аллея кошмаров / Nightmare Alley | Дубляж | 720p / 60 FPS slaventi-69 Скачать
3 | 0
Фильмы 2021 [DVDrip, WEB-DLRip, HDrip] (DUB, MVO) [ 2.12 GB ] Аллея кошмаров / Nightmare Alley | DUB | BDRip bober100 Скачать
2 | 0
Фильмы 2021 [DVDrip, WEB-DLRip, HDrip] (DUB, MVO) [ 1.46 GB ] Аллея кошмаров / Nightmare Alley | DUB | BDRip bober100 Скачать
2 | 0
Фильмы [HD 720p, 1080p] (Хороший звук DUB, MVO) [ 5.5 GB ] Аллея кошмаров / Nightmare Alley | IVI | 720p bober100 Скачать
3 | 0
Фильмы (Blu-ray, BD-Remux, HDDVD) [ 38.44 GB ] Аллея кошмаров / Nightmare Alley | Jaskier | BD Remux 1080p bober100 Скачать
1 | 0
Ultra HD (UHD: 2K, 4K, 8K) [ 56.8 GB ] Аллея кошмаров / Nightmare Alley | Jaskier | 2160p bober100 Скачать
2 | 0
Фильмы 2021 [DVDrip, WEB-DLRip, HDrip] (DUB, MVO) [ 2.18 GB ] Аллея кошмаров / Nightmare Alley | HDRezka Studio | DLRip bober100 Скачать
4 | 0

28-11-2019 20:33  

Отключить вcю реклaмy на сайте

    Дорогой пользователь! Огромная просьба, поблагодарите релизера, оцените раздачу и оставьте свои комментарий, если Вы скачали Аллея кошмаров через торрент бесплатно!!
    Комментировать посты могут только пользователи прошедшие не сложную регистрацию
    Показать сообщения:    


    Аллея кошмаров через торрент
    Скачать бесплатно Аллея кошмаров
    Аллея кошмаров скачать торрент
    Аллея кошмаров смотреть онлайн
    Cкачать фильм Аллея кошмаров бесплатно
    Аллея кошмаров скачать торрент в хорошем качестве
    Аллея кошмаров смотреть онлайн бесплатно в хорошем качестве
    Вы не можете начинать темы
    Вы не можете отвечать на сообщения
    Вы не можете редактировать свои сообщения
    Вы не можете удалять свои сообщения
    Вы не можете голосовать в опросах
    Вы не можете прикреплять файлы к сообщениям
    Вы можете скачивать файлы