Всегда рабочее зеркало без VPN и Proxy просто перед .vidak.icu напиши любое слово или цифру, Пример http://1nax.vidak.icu

MVO

MVO

1 сезон

1

1 сезон

iTunes

1 сезон

13

1 сезон

Deluxe

pack

Рекомендуем

Repack

30

ВАЖНО

RePack

MK11

RePack

jed

RePack

fifa19

RePack

RDR2

RePack

NEED FOR SPEED™ PAYBACK

Кинопоиск HD

6 сезон

 Острые козырьки 6 сезон

Все сериалы

все сериалы на PB.wtf

RePack

FAR CRY 5
  
Magnet ссылка

Крестный отец / The Godfather (Фрэнсис Форд Коппола) [1972, Триллер, драма, криминал, UHD BDRemux 2160p] DUB [iTunes] +MVO+6xAVO pb.wtf

Крестный отец через торрент pb.wtf

Размер: 74.51 GB | Добавлен: 4 мес. 26 д. назад | Торрент скачан:29 раз
Смотреть онлайн Крестный отец | Скачать    Ребята, помогите собрать деньги на оплату серверов!!!

14-03-2022 16:04 Крестный отец Скачать торрент  

Крестный отец
The Godfather

Год выпуска: 1972
Страна: США
Студия: Paramount Pictures
Жанр: Триллер, драма, криминал
Продолжительность: 02:55:28
Перевод(ы):
#1: Дублированный | iTunes
#2: Профессиональный многоголосый | Киномания
#3: Авторский | Юрий Живов
#4: Авторский | Леонид Володарский
#5: Авторский | Юрий Сербин
#6: Авторский | Алексей Михалёв
#7: Авторский | Григорий Либергал
#8: Авторский | Константин Филонов
Субтитры: Русские (Forced, 6 x full), английские

Режиссер: Фрэнсис Форд Коппола

rating

В ролях: Марлон Брандо, Аль Пачино, Джеймс Каан, Ричард С. Кастеллано, Роберт Дювалл, Стерлинг Хейден, Джон Марли, Ричард Конте, Аль Леттьери, Дайан Китон

Описание: Криминальная сага, повествующая о нью-йоркской сицилийской мафиозной семье Корлеоне. Фильм охватывает период 1945—1955 годов. Глава семьи, Дон Вито Корлеоне, выдаёт замуж свою дочь. В это время со Второй мировой войны возвращается его любимый сын Майкл. Майкл, герой войны, гордость семьи, не выражает желания заняться жестоким семейным бизнесом. Дон Корлеоне ведёт дела по старым правилам, но наступают иные времена, и появляются люди, желающие изменить сложившиеся порядки. На Дона Корлеоне совершается покушение. Он выживает, но временно теряет возможность управлять делами семьи. Благополучие и даже выживание семьи поставлено под угрозу. И здесь Майклу приходится вмешаться. Ради семьи он совершает двойное убийство, что вынуждает его некоторое время скрываться в Италии. Там он женится, но при покушении на него погибает его молодая жена. Майкл возвращается в Нью-Йорк и всерьёз начинает заниматься делами семьи, сам становясь в итоге её главой...

Качество: UHD BDRemux 2160p
Формат: MKV

Видео: 3840x2160 at 23.976 fps, MPEG-H HEVC HDR, ~ 53300 kbps avg
Аудио #01: 48 kHz, AC3, 5.1, 384 Kbps | Дублированный | iTunes | RUS |
Аудио #02: 48 kHz, AC3, 5.1, 448 Kbps | Профессиональный многоголосый | Киномания | RUS |
Аудио #03: 48 kHz, AC3, 5.1, 448 Kbps | Авторский | Юрий Живов | RUS |
Аудио #04: 48 kHz, AC3, 2.0, 192 Kbps | Авторский | Леонид Володарский | RUS |
Аудио #05: 48 kHz, AC3, 5.1, 448 Kbps | Авторский | Юрий Сербин | RUS |
Аудио #06: 48 kHz, AC3, 5.1, 448 Kbps | Авторский | Алексей Михалёв | RUS |
Аудио #07: 48 kHz, AC3, 5.1, 448 Kbps | Авторский | Григорий Либергал | RUS |
Аудио #08: 48 kHz, AC3, 5.1, 448 Kbps | Авторский | Константин Филонов | RUS |
Аудио #09: 48 kHz, TrueHD, 5.1, 3517 Kbps | Оригинал | ENG |
Аудио #10: 48 kHz, AC3, 5.1, 640 Kbps | Оригинал | ENG |
скриншот  скриншот  скриншот  скриншот  скриншот  

General
Unique ID : 218968645726610688561684910311194613800 (0xA4BBD3C1539CBC2D4B25C95B8BE5D828)
Complete name : D:Video1The.Godfather.1972.BDREMUX.2160p.HDR.seleZen.mkv
Format : Matroska
Format version : Version 4
File size : 74.5 GiB
Duration : 2 h 56 min
Overall bit rate mode : Variable
Overall bit rate : 60.4 Mb/s
Movie name : The Godfather 1972 from seleZen
Encoded date : UTC 2022-03-14 14:14:15
Writing application : mkvmerge v59.0.0 ('Shining Star') 64-bit
Writing library : libebml v1.4.2 + libmatroska v1.6.4

Video
ID : 1
Format : HEVC
Format/Info : High Efficiency Video Coding
Format profile : Main [email protected]@High
HDR format : SMPTE ST 2086, HDR10 compatible
Codec ID : V_MPEGH/ISO/HEVC
Duration : 2 h 55 min
Bit rate : 53.3 Mb/s
Width : 3 840 pixels
Height : 2 160 pixels
Display aspect ratio : 16:9
Frame rate mode : Constant
Frame rate : 23.976 (24000/1001) FPS
Color space : YUV
Chroma subsampling : 4:2:0 (Type 2)
Bit depth : 10 bits
Bits/(Pixel*Frame) : 0.268
Stream size : 65.3 GiB (88%)
Language : English
Default : Yes
Forced : No
Color range : Limited
Color primaries : BT.2020
Transfer characteristics : PQ
Matrix coefficients : BT.2020 non-constant
Mastering display color pri : Display P3
Mastering display luminance : min: 0.0001 cd/m2, max: 1000 cd/m2
Maximum Content Light Level : 0 cd/m2
Maximum Frame-Average Light : 0 cd/m2

Audio #1
ID : 2
Format : AC-3
Format/Info : Audio Coding 3
Commercial name : Dolby Digital
Codec ID : A_AC3
Duration : 2 h 56 min
Bit rate mode : Constant
Bit rate : 384 kb/s
Channel(s) : 6 channels
Channel layout : L R C LFE Ls Rs
Sampling rate : 48.0 kHz
Frame rate : 31.250 FPS (1536 SPF)
Compression mode : Lossy
Stream size : 485 MiB (1%)
Title : Dub [iTunes]
Language : Russian
Service kind : Complete Main
Default : Yes
Forced : Yes

Audio #2
ID : 3
Format : AC-3
Format/Info : Audio Coding 3
Commercial name : Dolby Digital
Codec ID : A_AC3
Duration : 2 h 56 min
Bit rate mode : Constant
Bit rate : 448 kb/s
Channel(s) : 6 channels
Channel layout : L R C LFE Ls Rs
Sampling rate : 48.0 kHz
Frame rate : 31.250 FPS (1536 SPF)
Compression mode : Lossy
Stream size : 566 MiB (1%)
Title : MVO [Киномания]
Language : Russian
Service kind : Complete Main
Default : No
Forced : No

Audio #3
ID : 4
Format : AC-3
Format/Info : Audio Coding 3
Commercial name : Dolby Digital
Codec ID : A_AC3
Duration : 2 h 56 min
Bit rate mode : Constant
Bit rate : 448 kb/s
Channel(s) : 6 channels
Channel layout : L R C LFE Ls Rs
Sampling rate : 48.0 kHz
Frame rate : 31.250 FPS (1536 SPF)
Compression mode : Lossy
Stream size : 566 MiB (1%)
Title : AVO [Юрий Живов]
Language : Russian
Service kind : Complete Main
Default : No
Forced : No

Audio #4
ID : 5
Format : AC-3
Format/Info : Audio Coding 3
Commercial name : Dolby Digital
Codec ID : A_AC3
Duration : 2 h 56 min
Bit rate mode : Constant
Bit rate : 192 kb/s
Channel(s) : 2 channels
Channel layout : L R
Sampling rate : 48.0 kHz
Frame rate : 31.250 FPS (1536 SPF)
Compression mode : Lossy
Stream size : 243 MiB (0%)
Title : AVO [Леонид Володарский]
Language : Russian
Service kind : Complete Main
Default : No
Forced : No

Audio #5
ID : 6
Format : AC-3
Format/Info : Audio Coding 3
Commercial name : Dolby Digital
Codec ID : A_AC3
Duration : 2 h 56 min
Bit rate mode : Constant
Bit rate : 448 kb/s
Channel(s) : 6 channels
Channel layout : L R C LFE Ls Rs
Sampling rate : 48.0 kHz
Frame rate : 31.250 FPS (1536 SPF)
Compression mode : Lossy
Stream size : 566 MiB (1%)
Title : AVO [Юрий Сербин]
Language : Russian
Service kind : Complete Main
Default : No
Forced : No

Audio #6
ID : 7
Format : AC-3
Format/Info : Audio Coding 3
Commercial name : Dolby Digital
Codec ID : A_AC3
Duration : 2 h 56 min
Bit rate mode : Constant
Bit rate : 448 kb/s
Channel(s) : 6 channels
Channel layout : L R C LFE Ls Rs
Sampling rate : 48.0 kHz
Frame rate : 31.250 FPS (1536 SPF)
Compression mode : Lossy
Stream size : 566 MiB (1%)
Title : AVO [Алексей Михалёв]
Language : Russian
Service kind : Complete Main
Default : No
Forced : No

Audio #7
ID : 8
Format : AC-3
Format/Info : Audio Coding 3
Commercial name : Dolby Digital
Codec ID : A_AC3
Duration : 2 h 56 min
Bit rate mode : Constant
Bit rate : 448 kb/s
Channel(s) : 6 channels
Channel layout : L R C LFE Ls Rs
Sampling rate : 48.0 kHz
Frame rate : 31.250 FPS (1536 SPF)
Compression mode : Lossy
Stream size : 566 MiB (1%)
Title : AVO [Григорий Либергал]
Language : Russian
Service kind : Complete Main
Default : No
Forced : No

Audio #8
ID : 9
Format : AC-3
Format/Info : Audio Coding 3
Commercial name : Dolby Digital
Codec ID : A_AC3
Duration : 2 h 56 min
Bit rate mode : Constant
Bit rate : 448 kb/s
Channel(s) : 6 channels
Channel layout : L R C LFE Ls Rs
Sampling rate : 48.0 kHz
Frame rate : 31.250 FPS (1536 SPF)
Compression mode : Lossy
Stream size : 566 MiB (1%)
Title : AVO [Константин Филонов]
Language : Russian
Service kind : Complete Main
Default : No
Forced : No

Audio #9
ID : 10
Format : MLP FBA
Format/Info : Meridian Lossless Packing FBA
Commercial name : Dolby TrueHD
Codec ID : A_TRUEHD
Duration : 2 h 55 min
Bit rate mode : Variable
Bit rate : 3 517 kb/s
Maximum bit rate : 4 932 kb/s
Channel(s) : 6 channels
Channel layout : L R C LFE Ls Rs
Sampling rate : 48.0 kHz
Frame rate : 1 200.000 FPS (40 SPF)
Compression mode : Lossless
Stream size : 4.31 GiB (6%)
Title : Original
Language : English
Default : No
Forced : No

Audio #10
ID : 11
Format : AC-3
Format/Info : Audio Coding 3
Commercial name : Dolby Digital
Codec ID : A_AC3
Duration : 2 h 55 min
Bit rate mode : Constant
Bit rate : 640 kb/s
Channel(s) : 6 channels
Channel layout : L R C LFE Ls Rs
Sampling rate : 48.0 kHz
Frame rate : 31.250 FPS (1536 SPF)
Compression mode : Lossy
Stream size : 803 MiB (1%)
Language : English
Service kind : Complete Main
Default : No
Forced : No

Text #1
ID : 12
Format : UTF-8
Codec ID : S_TEXT/UTF8
Codec ID/Info : UTF-8 Plain Text
Duration : 2 h 5 min
Bit rate : 5 b/s
Count of elements : 103
Stream size : 4.95 KiB (0%)
Title : Forced
Language : Russian
Default : Yes
Forced : Yes

Text #2
ID : 13
Format : UTF-8
Codec ID : S_TEXT/UTF8
Codec ID/Info : UTF-8 Plain Text
Duration : 2 h 51 min
Bit rate : 77 b/s
Count of elements : 1686
Stream size : 96.9 KiB (0%)
Title : Киномания
Language : Russian
Default : No
Forced : No

Text #3
ID : 14
Format : UTF-8
Codec ID : S_TEXT/UTF8
Codec ID/Info : UTF-8 Plain Text
Duration : 2 h 53 min
Bit rate : 76 b/s
Count of elements : 1341
Stream size : 96.8 KiB (0%)
Title : SomeWax
Language : Russian
Default : No
Forced : No

Text #4
ID : 15
Format : UTF-8
Codec ID : S_TEXT/UTF8
Codec ID/Info : UTF-8 Plain Text
Duration : 2 h 51 min
Bit rate : 82 b/s
Count of elements : 1805
Stream size : 103 KiB (0%)
Title : Позитив
Language : Russian
Default : No
Forced : No

Text #5
ID : 16
Format : UTF-8
Codec ID : S_TEXT/UTF8
Codec ID/Info : UTF-8 Plain Text
Duration : 2 h 51 min
Bit rate : 67 b/s
Count of elements : 1324
Stream size : 85.1 KiB (0%)
Title : iTunes
Language : Russian
Default : No
Forced : No

Text #6
ID : 17
Format : UTF-8
Codec ID : S_TEXT/UTF8
Codec ID/Info : UTF-8 Plain Text
Duration : 2 h 51 min
Bit rate : 77 b/s
Count of elements : 1686
Stream size : 97.0 KiB (0%)
Title : Карусель
Language : Russian
Default : No
Forced : No

Text #7
ID : 18
Format : UTF-8
Codec ID : S_TEXT/UTF8
Codec ID/Info : UTF-8 Plain Text
Duration : 2 h 51 min
Bit rate : 82 b/s
Count of elements : 1804
Stream size : 104 KiB (0%)
Title : Позитив-мультимедиа
Language : Russian
Default : No
Forced : No

Text #8
ID : 19
Format : UTF-8
Codec ID : S_TEXT/UTF8
Codec ID/Info : UTF-8 Plain Text
Duration : 1 h 23 min
Bit rate : 3 b/s
Count of elements : 74
Stream size : 2.05 KiB (0%)
Title : Forced
Language : English
Default : No
Forced : No

Text #9
ID : 20
Format : UTF-8
Codec ID : S_TEXT/UTF8
Codec ID/Info : UTF-8 Plain Text
Duration : 2 h 51 min
Bit rate : 42 b/s
Count of elements : 1312
Stream size : 53.8 KiB (0%)
Title : Normal
Language : English
Default : No
Forced : No

Text #10
ID : 21
Format : UTF-8
Codec ID : S_TEXT/UTF8
Codec ID/Info : UTF-8 Plain Text
Duration : 2 h 51 min
Bit rate : 55 b/s
Count of elements : 1934
Stream size : 69.8 KiB (0%)
Title : English (SDH)
Language : English
Default : No
Forced : No

Text #11
ID : 22
Format : UTF-8
Codec ID : S_TEXT/UTF8
Codec ID/Info : UTF-8 Plain Text
Duration : 2 h 51 min
Bit rate : 42 b/s
Count of elements : 1321
Stream size : 53.6 KiB (0%)
Language : English
Default : No
Forced : No

Menu
00:00:00.000 : Глава 01
00:07:05.467 : Глава 02
00:17:38.307 : Глава 03
00:26:38.138 : Глава 04
00:33:54.866 : Глава 05
00:39:52.432 : Глава 06
00:48:26.987 : Глава 07
00:57:53.011 : Глава 08
01:08:19.262 : Глава 09
01:15:23.686 : Глава 10
01:29:35.370 : Глава 11
01:36:41.546 : Глава 12
01:45:52.846 : Глава 13
01:49:04.872 : Глава 14
01:53:32.347 : Глава 15
02:02:55.994 : Глава 16
02:06:11.939 : Глава 17
02:13:02.808 : Глава 18
02:19:22.145 : Глава 19
02:25:31.389 : Глава 20
02:36:30.715 : Глава 21
02:44:18.223 : Глава 22
02:52:40.433 : Глава 23

pb.wtf



Скачать Крестный отец через торрент https://i5.imageban.ru/out/2022/03/14/9dbf0cac33a10327f38d91faf0bcdfa1.jpg Скачать, смотреть онлайн Крестный отец бесплантно в хорошем качестве Описание: Криминальная сага, повествующая о нью-йоркской сицилийской мафиозной семье Корлеоне. Фильм охватывает период 1945—1955 годов. ... 8.7 10 7
Торрент: Зарегистрирован [2022-03-14 16:04] · скачан: 29 раз
Статус: √ проверено
Размер: 74.51 GB
Как cкачать? Как скачать Крестный отец через торрент | UTorrent

28-11-2019 20:33  

Отключить вcю реклaмy на сайте

    Дорогой пользователь! Огромная просьба, поблагодарите релизера, оцените раздачу и оставьте свои комментарий, если Вы скачали Крестный отец через торрент бесплатно!
    Комментировать посты могут только пользователи прошедшие не сложную регистрацию
    Показать сообщения:    

    Крестный отец через торрент
    Скачать бесплатно Крестный отец
    Крестный отец скачать торрент
    Крестный отец смотреть онлайн
    Cкачать фильм Крестный отец бесплатно
    Крестный отец скачать торрент в хорошем качестве
    Крестный отец смотреть онлайн бесплатно в хорошем качестве


    Вы не можете начинать темы
    Вы не можете отвечать на сообщения
    Вы не можете редактировать свои сообщения
    Вы не можете удалять свои сообщения
    Вы не можете голосовать в опросах
    Вы не можете прикреплять файлы к сообщениям
    Вы можете скачивать файлы