Всегда рабочее зеркало без VPN и Proxy просто перед .vidak.icu напиши любое слово или цифру, Пример http://ifzv.vidak.icu

MVO

2 сезон

1 сезон

1

1 сезон

iTunes

2 сезон

13

1 сезон

Deluxe

pack

Рекомендуем

Пиратка

30

ВАЖНО

RePack

MK11

RePack

jed

RePack

fifa19

RePack

RDR2

RePack

NEED FOR SPEED™ PAYBACK

Кинопоиск HD

6 сезон

 Острые козырьки 6 сезон

Все сериалы

все сериалы на PB.wtf

RePack

FAR CRY 5

Anonymous, нам критически не хватает 5601 руб. на оплату серверов и переферии за Апрель, помоги нам пожалуйста, вся надежда только на тебя. В благодарность мы отключим тебе всю рекламу на сайте!

×
  
Magnet ссылка

18 килогерц / 18 kHz (Фархат Шарипов) [2020, драма, WEB-DLRip-AVC] RUS [IVI] от ExKinoRay pb.wtf

18 килогерц через торрент pb.wtf

Раздают: 2 [ 0 KB/s ]
Размер: 1.26 GB | Добавлен: 2 мес. 5 д. назад | Торрент скачан:57 раз
Смотреть онлайн 18 килогерц | Скачать    Ребята, помогите собрать деньги на оплату серверов!!!

15-03-2022 19:11 18 килогерц Скачать торрент  


18 килогерц / 18 kHz
Информация о фильме:
Название: 18 килогерц
Оригинальное название: 18 kHz
Год выхода: 2020
Жанр: драма
Режиссер: Фархат Шарипов
В ролях: Мусахан Жумаханов, Алибек Адикен, Камила Фун-Со, Махаббат Саркытпаева

Описание: 18 килогерц — это частота звука, которую не слышат взрослые. Фильм рассказывает о реалиях, которые происходили с подростками в Казахстане в конце девяностых во время героинового бума в Алматы. Эта история раскрывает одну из многих граней конфликта, из-за которого происходит отчуждение ребенка от семьи. Что заставляет подростка поменять уют и тепло родного дома на романтику асфальтированных улиц холодного бетонного города?



Страна: Казахстан
Студия: Centera Production
Продолжительность: 01:20:58
Перевод: Оригинал |Русский| - IVI



Информация о файле:
Кодек: AVC
Формат: MKV
Качество: WEB-DLRip-AVC
Видео: MPEG-4 AVC, 1024x426, 25.000 fps, 1850 kb/s
Аудио RU: AC3, 6 ch, 48 kHz, 384 kbps

x264 info: frame I:742 Avg QP:11.74 size: 63565
x264 info: frame P:27178 Avg QP:15.04 size: 20361
x264 info: frame B:93525 Avg QP:16.08 size: 5581
General
Unique ID : 106713392000776003941368423758600511207 (0x5048407034FD422B27396DA0C8A69EE7)
Complete name : D:uTorrentРипы wolf124518 kHz.2020.RUS.IVI.x264.WEB-DLRip-AVC.[wolf1245.ExKinoRay].mkv
Format : Matroska
Format version : Version 4
File size : 1.26 GiB
Duration : 1 h 20 min
Overall bit rate : 2 234 kb/s
Movie name : 18 kHz.2020.RUS.IVI.x264.WEB-DLRip-AVC.[wolf1245.ExKinoRay]
Encoded date : UTC 2022-03-15 18:56:13
Writing application : mkvmerge v66.0.0 ('Josie') 64-bit
Writing library : libebml v1.4.2 + libmatroska v1.6.4
Video
ID : 1
Format : AVC
Format/Info : Advanced Video Codec
Format profile : High@L4.1
Format settings : CABAC / 10 Ref Frames
Format settings, CABAC : Yes
Format settings, Reference frames : 10 frames
Codec ID : V_MPEG4/ISO/AVC
Duration : 1 h 20 min
Bit rate : 1 850 kb/s
Width : 1 024 pixels
Height : 426 pixels
Display aspect ratio : 2.40:1
Frame rate mode : Constant
Frame rate : 25.000 FPS
Color space : YUV
Chroma subsampling : 4:2:0
Bit depth : 8 bits
Scan type : Progressive
Bits/(Pixel*Frame) : 0.170
Stream size : 1.05 GiB (83%)
Title : -=[wolf1245.ExKinoRay]=-
Writing library : x264 core 163 r3060 5db6aa6
Encoding settings : cabac=1 / ref=10 / deblock=1:-3:-2 / analyse=0x3:0x133 / me=umh / subme=11 / psy=1 / psy_rd=1.00:0.10 / mixed_ref=1 / me_range=32 / chroma_me=1 / trellis=2 / 8x8dct=1 / cqm=0 / deadzone=22,11 / fast_pskip=1 / chroma_qp_offset=-3 / threads=10 / lookahead_threads=2 / sliced_threads=0 / nr=0 / decimate=0 / interlaced=0 / bluray_compat=0 / constrained_intra=0 / bframes=10 / b_pyramid=2 / b_adapt=2 / b_bias=0 / direct=3 / weightb=1 / open_gop=0 / weightp=2 / keyint=250 / keyint_min=25 / scenecut=40 / intra_refresh=0 / rc_lookahead=60 / rc=2pass / mbtree=0 / bitrate=1850 / ratetol=1.0 / qcomp=0.60 / qpmin=0 / qpmax=69 / qpstep=4 / cplxblur=20.0 / qblur=0.5 / vbv_maxrate=50000 / vbv_bufsize=62500 / nal_hrd=none / filler=0 / ip_ratio=1.40 / pb_ratio=1.30 / aq=3:0.80
Language : Russian
Default : Yes
Forced : No
Audio
ID : 2
Format : AC-3
Format/Info : Audio Coding 3
Commercial name : Dolby Digital
Codec ID : A_AC3
Duration : 1 h 20 min
Bit rate mode : Constant
Bit rate : 384 kb/s
Channel(s) : 6 channels
Channel layout : L R C LFE Ls Rs
Sampling rate : 48.0 kHz
Frame rate : 31.250 FPS (1536 SPF)
Compression mode : Lossy
Stream size : 222 MiB (17%)
Title : Original | IVI | RUS
Language : Russian
Service kind : Complete Main
Default : Yes
Forced : Yes
Релиз от:
Автор релиза:
pb.wtf



Скачать 18 килогерц через торрент http://i116.fastpic.org/big/2022/0315/62/d839b3c36769d69bc424cdb3a4966162.jpg Скачать, смотреть онлайн 18 килогерц бесплантно в хорошем качестве Описание: 18 килогерц — это частота звука, которую не слышат взрослые. Фильм рассказывает о реалиях, которые происходили с подростками в ... 10 10 2
Торрент: Зарегистрирован [2022-03-15 19:11] · скачан: 57 раз
Статус: √ проверено
Размер: 1.26 GB
Как cкачать? Как скачать 18 килогерц через торрент | UTorrent

28-11-2019 20:33  

Отключить всю рекламу на сайте

    Дорогой пользователь! Огромная просьба, поблагодарите релизера, оцените раздачу и оставьте свои комментарий, если Вы скачали 18 килогерц через торрент бесплатно!
    Комментировать посты могут только пользователи прошедшие не сложную регистрацию
    Показать сообщения:    

    18 килогерц через торрент
    Скачать бесплатно 18 килогерц
    18 килогерц скачать торрент
    18 килогерц смотреть онлайн
    Cкачать фильм 18 килогерц бесплатно
    18 килогерц скачать торрент в хорошем качестве
    18 килогерц смотреть онлайн бесплатно в хорошем качестве


    Вы не можете начинать темы
    Вы не можете отвечать на сообщения
    Вы не можете редактировать свои сообщения
    Вы не можете удалять свои сообщения
    Вы не можете голосовать в опросах
    Вы не можете прикреплять файлы к сообщениям
    Вы можете скачивать файлы