Всегда рабочее зеркало без VPN и Proxy просто перед .vidak.icu напиши любое слово или цифру, Пример http://yicn.vidak.icu

MVO

2 сезон

1 сезон

1

1 сезон

iTunes

2 сезон

13

1 сезон

Deluxe

pack

Рекомендуем

Пиратка

30

ВАЖНО

RePack

MK11

RePack

jed

RePack

fifa19

RePack

RDR2

RePack

NEED FOR SPEED™ PAYBACK

Кинопоиск HD

6 сезон

 Острые козырьки 6 сезон

Все сериалы

все сериалы на PB.wtf

RePack

FAR CRY 5

Anonymous, нам критически не хватает 5601 руб. на оплату серверов и переферии за Апрель, помоги нам пожалуйста, вся надежда только на тебя. В благодарность мы отключим тебе всю рекламу на сайте!

×
  
Magnet ссылка

Человек-паук: Нет пути домой / Spider-Man: No Way Home (Джон Уоттс) [2021 г., Фантастика, боевик, приключения, фэнтези, BDRip-AVC] DUB [СинеЛаб СаундМикс] от ExKinoRay pb.wtf

Человек-паук: Нет пути домой через торрент pb.wtf

Раздают: 3 [ 0 KB/s ]
Размер: 3.19 GB | Добавлен: 2 мес. 7 д. назад | Торрент скачан:254 раза
Смотреть онлайн Человек-паук: Нет пути домой | Скачать    Ребята, помогите собрать деньги на оплату серверов!!!

19-03-2022 06:47 Человек-паук: Нет пути домой Скачать торрент  


Человек-паук: Нет пути домой / Spider-Man: No Way Home
Информация о фильме:
Название: Человек-паук: Нет пути домой
Оригинальное название: Человек-паук: Spider-Man: No Way Home
Год выхода: 2021
Жанр: Фантастика, боевик, приключения, фэнтези
Режиссер: Джон Уоттс
В ролях: Том Холланд, Зендая, Бенедикт Камбербэтч, Мариса Томей, Джейкоб Баталон, Уиллем Дефо, Альфред Молина, Джейми Фокс, Рис Иванс, Томас Хейден Черч, Джон Фавро, Тоби Магуайр, Эндрю Гарфилд, Тони Револори, Дж.К. Симмонс, Бенедикт Вонг, Энгаури Райс, Мартин Старр, Дж.Б. Смув, Гарри Холланд, Хэннибал Бересс, Паула Ньюсом, Хорхе Лендеборг мл., Чарли Кокс

Описание: Теперь, когда весь мир узнал, кто скрывается за маской Человека-паука, жизнь Питера Паркера и его близких меняется не в лучшую сторону. Не придумав ничего лучше, Паркер обращается за помощью к Доктору Стрэнджу. Но в процессе заклинания, которое должно было заставить человечество забыть о Питере, что-то идет не так, в результате чего открывается портал в Мультивселенную. Герою предстоит познакомиться со всеми суперзлодеями, с которыми приходилось бороться Человеку-пауку в альтернативных реальностях.



Страна: США
Студия: Columbia Pictures Corporation, Marvel Studios Inc., Pascal Pictures, Sony Pictures Entertainment (SPE)
Продолжительность: 02:28:09
Перевод: Дублированный - СинеЛаб СаундМикс



Информация о файле:
Кодек: AVC
Формат: MKV
Качество: BDRip-AVC / Spider-Man.No.Way.Home.2021.BDREMUX.1080p
Видео: MPEG-4 AVC, 1024x428, 23.976 fps, 2250 kb/s
Аудио RU: AC3, 6 ch, 48 kHz, 384 kbps
Аудио EN: AC3, 6 ch, 48 kHz, 448 kbps
Субтитры: Русские (Forced, 2 x full), украинские (Full), английские

x264 info: frame I:2176 Avg QP:12.44 size: 79591
x264 info: frame P:55194 Avg QP:15.89 size: 23883
x264 info: frame B:155773 Avg QP:17.23 size: 6480
General
Unique ID : 87999159333837895237990684382054909964 (0x42340587DA3B8351EC1734668ADD080C)
Complete name : D:uTorrentРипы wolf1245SpiderMan. No Way Home.2021.DUB.Sinelab.x264.BDRip-AVC.[wolf1245.ExKinoRay].mkv
Format : Matroska
Format version : Version 4
File size : 3.19 GiB
Duration : 2 h 28 min
Overall bit rate : 3 085 kb/s
Movie name : SpiderMan. No Way Home.2021.DUB.Sinelab.x264.BDRip-AVC.[wolf1245.ExKinoRay]
Encoded date : UTC 2022-03-19 06:32:19
Writing application : mkvmerge v66.0.0 ('Josie') 64-bit
Writing library : libebml v1.4.2 + libmatroska v1.6.4
Video
ID : 1
Format : AVC
Format/Info : Advanced Video Codec
Format profile : High@L4.1
Format settings : CABAC / 10 Ref Frames
Format settings, CABAC : Yes
Format settings, Reference frames : 10 frames
Codec ID : V_MPEG4/ISO/AVC
Duration : 2 h 28 min
Bit rate : 2 250 kb/s
Width : 1 024 pixels
Height : 428 pixels
Display aspect ratio : 2.40:1
Frame rate mode : Constant
Frame rate : 23.976 (24000/1001) FPS
Color space : YUV
Chroma subsampling : 4:2:0
Bit depth : 8 bits
Scan type : Progressive
Bits/(Pixel*Frame) : 0.214
Stream size : 2.33 GiB (73%)
Title : -=[wolf1245.ExKinoRay]=-
Writing library : x264 core 163 r3060 5db6aa6
Encoding settings : cabac=1 / ref=10 / deblock=1:-3:-3 / analyse=0x3:0x133 / me=umh / subme=11 / psy=1 / psy_rd=1.03:0.15 / mixed_ref=1 / me_range=32 / chroma_me=1 / trellis=2 / 8x8dct=1 / cqm=0 / deadzone=22,11 / fast_pskip=1 / chroma_qp_offset=-3 / threads=10 / lookahead_threads=2 / sliced_threads=0 / nr=0 / decimate=0 / interlaced=0 / bluray_compat=0 / constrained_intra=0 / bframes=10 / b_pyramid=2 / b_adapt=2 / b_bias=0 / direct=3 / weightb=1 / open_gop=0 / weightp=2 / keyint=240 / keyint_min=24 / scenecut=40 / intra_refresh=0 / rc_lookahead=60 / rc=2pass / mbtree=0 / bitrate=2250 / ratetol=1.0 / qcomp=0.60 / qpmin=0 / qpmax=69 / qpstep=4 / cplxblur=20.0 / qblur=0.5 / vbv_maxrate=50000 / vbv_bufsize=62500 / nal_hrd=none / filler=0 / ip_ratio=1.40 / pb_ratio=1.30 / aq=1:1.00
Language : English
Default : Yes
Forced : No
Audio #1
ID : 2
Format : AC-3
Format/Info : Audio Coding 3
Commercial name : Dolby Digital
Codec ID : A_AC3
Duration : 2 h 28 min
Bit rate mode : Constant
Bit rate : 384 kb/s
Channel(s) : 6 channels
Channel layout : L R C LFE Ls Rs
Sampling rate : 48.0 kHz
Frame rate : 31.250 FPS (1536 SPF)
Compression mode : Lossy
Stream size : 407 MiB (12%)
Title : DUB | СинеЛаб СаундМикс | RUS
Language : Russian
Service kind : Complete Main
Default : Yes
Forced : Yes
Audio #2
ID : 3
Format : AC-3
Format/Info : Audio Coding 3
Commercial name : Dolby Digital
Codec ID : A_AC3
Duration : 2 h 28 min
Bit rate mode : Constant
Bit rate : 448 kb/s
Channel(s) : 6 channels
Channel layout : L R C LFE Ls Rs
Sampling rate : 48.0 kHz
Frame rate : 31.250 FPS (1536 SPF)
Compression mode : Lossy
Stream size : 475 MiB (15%)
Title : Original | ENG
Language : English
Service kind : Complete Main
Default : Yes
Forced : No
Text #1
ID : 4
Format : UTF-8
Codec ID : S_TEXT/UTF8
Codec ID/Info : UTF-8 Plain Text
Duration : 2 h 16 min
Bit rate : 0 b/s
Count of elements : 9
Stream size : 532 Bytes (0%)
Title : Forced
Language : Russian
Default : Yes
Forced : Yes
Text #2
ID : 5
Format : UTF-8
Codec ID : S_TEXT/UTF8
Codec ID/Info : UTF-8 Plain Text
Duration : 2 h 28 min
Bit rate : 83 b/s
Count of elements : 1941
Stream size : 90.1 KiB (0%)
Title : Full
Language : Russian
Default : No
Forced : No
Text #3
ID : 6
Format : UTF-8
Codec ID : S_TEXT/UTF8
Codec ID/Info : UTF-8 Plain Text
Duration : 2 h 28 min
Bit rate : 97 b/s
Count of elements : 2092
Stream size : 106 KiB (0%)
Title : Full [FOCS]
Language : Russian
Default : No
Forced : No
Text #4
ID : 7
Format : UTF-8
Codec ID : S_TEXT/UTF8
Codec ID/Info : UTF-8 Plain Text
Duration : 2 h 28 min
Bit rate : 88 b/s
Count of elements : 1984
Stream size : 96.0 KiB (0%)
Title : Full
Language : Ukrainian
Default : No
Forced : No
Text #5
ID : 8
Format : UTF-8
Codec ID : S_TEXT/UTF8
Codec ID/Info : UTF-8 Plain Text
Duration : 2 h 27 min
Bit rate : 63 b/s
Count of elements : 2187
Stream size : 69.1 KiB (0%)
Title : Full
Language : English
Default : No
Forced : No
Menu
00:00:00.000 : :CapĂ­tulo 01
00:05:03.177 : :CapĂ­tulo 02
00:11:58.591 : :CapĂ­tulo 03
00:18:38.909 : :CapĂ­tulo 04
00:27:00.451 : :CapĂ­tulo 05
00:37:21.239 : :CapĂ­tulo 06
00:48:02.003 : :CapĂ­tulo 07
00:59:51.795 : :CapĂ­tulo 08
01:04:06.634 : :CapĂ­tulo 09
01:09:51.310 : :CapĂ­tulo 10
01:18:29.453 : :CapĂ­tulo 11
01:28:59.625 : :CapĂ­tulo 12
01:33:48.287 : :CapĂ­tulo 13
01:46:38.390 : :CapĂ­tulo 14
02:05:39.323 : :CapĂ­tulo 15
02:13:03.600 : :CapĂ­tulo 16
Релиз от:
Автор релиза:
pb.wtf



Скачать Человек-паук: Нет пути домой через торрент http://i116.fastpic.org/big/2022/0319/2e/34c617c34137d5e282c684cfedb4f62e.jpg Скачать, смотреть онлайн Человек-паук: Нет пути домой бесплантно в хорошем качестве Описание: Теперь, когда весь мир узнал, кто скрывается за маской Человека-паука, жизнь Питера Паркера и его близких меняется не в лучшую ... 10 10 8
Торрент: Зарегистрирован [2022-03-19 06:47] · скачан: 254 раз
Статус: √ проверено
Размер: 3.19 GB
Как cкачать? Как скачать Человек-паук: Нет пути домой через торрент | UTorrent

28-11-2019 20:33  

Отключить всю рекламу на сайте

    Дорогой пользователь! Огромная просьба, поблагодарите релизера, оцените раздачу и оставьте свои комментарий, если Вы скачали Человек-паук: Нет пути домой через торрент бесплатно!
    Комментировать посты могут только пользователи прошедшие не сложную регистрацию
    Показать сообщения:    

    Человек-паук: Нет пути домой через торрент
    Скачать бесплатно Человек-паук: Нет пути домой
    Человек-паук: Нет пути домой скачать торрент
    Человек-паук: Нет пути домой смотреть онлайн
    Cкачать фильм Человек-паук: Нет пути домой бесплатно
    Человек-паук: Нет пути домой скачать торрент в хорошем качестве
    Человек-паук: Нет пути домой смотреть онлайн бесплатно в хорошем качестве


    Вы не можете начинать темы
    Вы не можете отвечать на сообщения
    Вы не можете редактировать свои сообщения
    Вы не можете удалять свои сообщения
    Вы не можете голосовать в опросах
    Вы не можете прикреплять файлы к сообщениям
    Вы можете скачивать файлы