Всегда рабочее зеркало без VPN и Proxy просто перед .vidak.icu напиши любое слово или цифру, Пример http://3gzf.vidak.icu

MVO

Лицензия

1 сезон

1

1 сезон

iTunes

1 сезон

13

1 сезон

Deluxe

pack

Рекомендуем

Пиратка

30

ВАЖНО

RePack

MK11

RePack

jed

RePack

fifa19

RePack

RDR2

RePack

NEED FOR SPEED™ PAYBACK

Кинопоиск HD

6 сезон

 Острые козырьки 6 сезон

Все сериалы

все сериалы на PB.wtf

RePack

FAR CRY 5
  
Magnet ссылка

Матрица: Воскрешение / The Matrix Resurrections (Лана Вачовски) [2021, Фантастика, боевик, WEB-DL 1080p] [Локализованная версия] DUB [Пифагор] pb.wtf

Матрица: Воскрешение через торрент pb.wtf

Раздают: 1 [ 34 KB/s ]
Размер: 8.02 GB | Добавлен: 3 мес. 12 д. назад | Торрент скачан:177 раз
Смотреть онлайн Матрица: Воскрешение | Скачать    Ребята, помогите собрать деньги на оплату серверов!!!

20-03-2022 18:17 Матрица: Воскрешение Скачать торрент  

Матрица: Воскрешение
The Matrix Resurrections

Год выпуска: 2021
Страна: США
Студия: NPV Entertainment, Silver Pictures, Village Roadshow Pictures, Warner Bros.
Жанр: Фантастика, боевик
Продолжительность: 02:28:13
Перевод(ы): Дублированный | Пифагор
Субтитры: Русские (Forced, Full), английские (SDH), иврит, эстонские, латышские, литовские, румынские, украинские

Режиссер: Лана Вачовски

rating

В ролях: Киану Ривз, Кэрри-Энн Мосс, Кристина Риччи, Джессика Хенвик, Дэниэл Бернхард, Джонатан Грофф, Приянка Чопра Джонас, Яхья Абдул-Матин II, Эллен Холлман, Джада Пинкетт Смит

Описание: Что делать, если окружающий мир кажется ловушкой, а самые фантастические сны больше похожи на настоящую жизнь, чем повседневная реальность? Хочешь найти правду? Следуй за белым кроликом, чтобы вернуться туда, где все началось... Обратно в Матрицу. Действие фильма «Матрица: Воскрешение» разворачивается спустя 20 лет после событий, показанных в третьей части. Отныне Нео живёт самой обычной жизнью, скрывая свою настоящую личность. Теперь его зовут Томас А. Андерсон. Нео старательно маскируется, ничем не отличаясь от среднестатистического обитателя Сан-Франциско.

Качество: WEB-DL 1080p | ЛОКАЛИЗОВАННЫЙ ВИДЕОРЯД
Формат: MKV

Видео: MPEG-4 AVC, 1920x804 (2.40:1), 23.976 fps, ~6585 kbps
Аудио №1: AC3, 48 kHz, 6 ch, 384 kbps
Аудио №2: E-AC3 ATMOS, 48 kHz, 6 ch, 768 kbps
скриншот  скриншот  скриншот  скриншот  скриншот  скриншот  

General
Complete name : The.Matrix.Resurrections.2021.1080p.WEB-DL.DD5.1.H.264-EniaHD.mkv
Format : Matroska
Format version : Version 4
File size : 8.02 GiB
Duration : 2 h 28 min
Overall bit rate : 7 742 kb/s
Movie name : The Matrix Resurrections (2021) - EniaHD
Writing application : mkvmerge v66.0.0 ('Josie') 64-bit
Writing library : libebml v1.4.2 + libmatroska v1.6.4

Video
ID : 1
Format : AVC
Format/Info : Advanced Video Codec
Format profile : High@L4
Format settings : CABAC / 5 Ref Frames
Format settings, CABAC : Yes
Format settings, Reference fra : 5 frames
Codec ID : V_MPEG4/ISO/AVC
Duration : 2 h 28 min
Bit rate : 6 588 kb/s
Width : 1 920 pixels
Height : 804 pixels
Display aspect ratio : 2.40:1
Frame rate mode : Constant
Frame rate : 23.976 (24000/1001) FPS
Color space : YUV
Chroma subsampling : 4:2:0
Bit depth : 8 bits
Scan type : Progressive
Bits/(Pixel*Frame) : 0.178
Stream size : 6.82 GiB (85%)
Default : Yes
Forced : No
Color range : Limited
Color primaries : BT.709
Transfer characteristics : BT.709
Matrix coefficients : BT.709

Audio #1
ID : 2
Format : AC-3
Format/Info : Audio Coding 3
Commercial name : Dolby Digital
Codec ID : A_AC3
Duration : 2 h 28 min
Bit rate mode : Constant
Bit rate : 384 kb/s
Channel(s) : 6 channels
Channel layout : L R C LFE Ls Rs
Sampling rate : 48.0 kHz
Frame rate : 31.250 FPS (1536 SPF)
Compression mode : Lossy
Stream size : 407 MiB (5%)
Title : Russian
Language : Russian
Service kind : Complete Main
Default : Yes
Forced : No

Audio #2
ID : 3
Format : E-AC-3 JOC
Format/Info : Enhanced AC-3 with Joint Object Coding
Commercial name : Dolby Digital Plus with Dolby Atmos
Codec ID : A_EAC3
Duration : 2 h 27 min
Bit rate mode : Constant
Bit rate : 768 kb/s
Channel(s) : 6 channels
Channel layout : L R C LFE Ls Rs
Sampling rate : 48.0 kHz
Frame rate : 31.250 FPS (1536 SPF)
Compression mode : Lossy
Stream size : 813 MiB (10%)
Title : English
Language : English
Service kind : Complete Main
Default : No
Forced : No
Complexity index : 16
Number of dynamic objects : 15
Bed channel count : 1 channel
Bed channel configuration : LFE

Text #1
ID : 4
Format : UTF-8
Codec ID : S_TEXT/UTF8
Codec ID/Info : UTF-8 Plain Text
Duration : 2 h 24 min
Bit rate : 0 b/s
Count of elements : 11
Stream size : 386 Bytes (0%)
Title : Russian (Forced)
Language : Russian
Default : Yes
Forced : No

Text #2
ID : 5
Format : UTF-8
Codec ID : S_TEXT/UTF8
Codec ID/Info : UTF-8 Plain Text
Duration : 2 h 26 min
Bit rate : 73 b/s
Count of elements : 1668
Stream size : 78.9 KiB (0%)
Title : Russian
Language : Russian
Default : No
Forced : No

Text #3
ID : 6
Format : UTF-8
Codec ID : S_TEXT/UTF8
Codec ID/Info : UTF-8 Plain Text
Duration : 2 h 27 min
Bit rate : 52 b/s
Count of elements : 2188
Stream size : 56.6 KiB (0%)
Title : English (SDH)
Language : English
Default : No
Forced : No

Text #4
ID : 7
Format : UTF-8
Codec ID : S_TEXT/UTF8
Codec ID/Info : UTF-8 Plain Text
Duration : 2 h 27 min
Bit rate : 71 b/s
Count of elements : 1688
Stream size : 77.0 KiB (0%)
Title : Hebrew
Language : Hebrew
Default : No
Forced : No

Text #5
ID : 8
Format : UTF-8
Codec ID : S_TEXT/UTF8
Codec ID/Info : UTF-8 Plain Text
Duration : 2 h 27 min
Bit rate : 44 b/s
Count of elements : 1708
Stream size : 47.7 KiB (0%)
Title : Estonian
Language : Estonian
Default : No
Forced : No

Text #6
ID : 9
Format : UTF-8
Codec ID : S_TEXT/UTF8
Codec ID/Info : UTF-8 Plain Text
Duration : 2 h 27 min
Bit rate : 49 b/s
Count of elements : 1714
Stream size : 53.4 KiB (0%)
Title : Latvian
Language : Latvian
Default : No
Forced : No

Text #7
ID : 10
Format : UTF-8
Codec ID : S_TEXT/UTF8
Codec ID/Info : UTF-8 Plain Text
Duration : 2 h 27 min
Bit rate : 44 b/s
Count of elements : 1685
Stream size : 47.8 KiB (0%)
Title : Lithuanian
Language : Lithuanian
Default : No
Forced : No

Text #8
ID : 11
Format : UTF-8
Codec ID : S_TEXT/UTF8
Codec ID/Info : UTF-8 Plain Text
Duration : 2 h 27 min
Bit rate : 47 b/s
Count of elements : 1563
Stream size : 50.7 KiB (0%)
Title : Romanian
Language : Romanian
Default : No
Forced : No

Text #9
ID : 12
Format : UTF-8
Codec ID : S_TEXT/UTF8
Codec ID/Info : UTF-8 Plain Text
Duration : 2 h 27 min
Bit rate : 73 b/s
Count of elements : 1684
Stream size : 78.7 KiB (0%)
Title : Ukrainian
Language : Ukrainian
Default : No
Forced : No

pb.wtf



Скачать Матрица: Воскрешение через торрент https://i4.imageban.ru/out/2022/02/23/ea26569b9cc2eb695ea63fb2c8e089da.png Скачать, смотреть онлайн Матрица: Воскрешение бесплантно в хорошем качестве Описание: Что делать, если окружающий мир кажется ловушкой, а самые фантастические сны больше похожи на настоящую жизнь, чем повседневная ... 10 10 5
Торрент: Зарегистрирован [2022-03-20 18:17] · скачан: 177 раз
Статус: √ проверено
Размер: 8.02 GB
Как cкачать? Как скачать Матрица: Воскрешение через торрент | UTorrent

% Раздел Тема Автор DL S | L
Ultra HD (UHD: 2K, 4K, 8K) — видео сверхвысокой чёткости [ 73.42 GB ] Матрица: Воскрешение / The Matrix Resurrections [2021 UHD BDRemux 2160p ] DUB [Кинопоиск HD] +2xMVO [HDRezka Studio Jaskier] +AVO [Д. Есарев] bober100 Скачать
1 | 0
Фильмы 2021 [DVDrip, WEB-DLRip, HDrip] (DUB, MVO) [ 2.18 GB ] Матрица: Воскрешение / The Matrix Resurrections [2021 WEB-DL 1080p] [Локализованная версия] DUB [Пифагор] bober100 Скачать
2 | 0
Ultra HD (UHD: 2K, 4K, 8K) — видео сверхвысокой чёткости [ 69.58 GB ] Матрица: Воскрешение / The Matrix Resurrections [2021 UHD BDRemux 2160p ] DUB [Кинопоиск HD] +2xMVO [HDRezka Studio Jaskier] +AVO [Д. Есарев] bober100 Скачать
3 | 0
Фильмы 2021 [DVDrip, WEB-DLRip, HDrip] (DUB, MVO) [ 2.91 GB ] Матрица: Воскрешение / The Matrix Resurrections [2021 BDRip-AVC] DUB [Кинопоиск HD] -=BIGBOSS=- Скачать
6 | 0
Фильмы (Blu-ray, BD-Remux, HDDVD) [ 28.21 GB ] Матрица: Воскрешение / The Matrix Resurrections [2021 BD Remux 1080p] DUB [Кинопоиск HD] +2xMVO [HDRezka Studio Jaskier] +AVO [Д. Есарев] bober100 Скачать
1 | 0
Фильмы [HD 720p, 1080p] (Хороший звук DUB, MVO) [ 15.82 GB ] Матрица: Воскрешение / The Matrix Resurrections [2021 BDRip 1080p] DUB [Кинопоиск HD] +2xMVO [HDRezka Studio Jaskier] +AVO [Д. Есарев] bober100 Скачать
6 | 0
Фильмы (WEB-DL 720p, 1080p) [ 2.47 GB ] Матрица: Воскрешение / The Matrix Resurrections [2021 WEB-DLRip 1080p] [MVO] killermax2013 Скачать
1 | 0

28-11-2019 20:33  

Отключить всю рекламу на сайте

    Дорогой пользователь! Огромная просьба, поблагодарите релизера, оцените раздачу и оставьте свои комментарий, если Вы скачали Матрица: Воскрешение через торрент бесплатно!
    Комментировать посты могут только пользователи прошедшие не сложную регистрацию
    Показать сообщения:    

    Матрица: Воскрешение через торрент
    Скачать бесплатно Матрица: Воскрешение
    Матрица: Воскрешение скачать торрент
    Матрица: Воскрешение смотреть онлайн
    Cкачать фильм Матрица: Воскрешение бесплатно
    Матрица: Воскрешение скачать торрент в хорошем качестве
    Матрица: Воскрешение смотреть онлайн бесплатно в хорошем качестве


    Вы не можете начинать темы
    Вы не можете отвечать на сообщения
    Вы не можете редактировать свои сообщения
    Вы не можете удалять свои сообщения
    Вы не можете голосовать в опросах
    Вы не можете прикреплять файлы к сообщениям
    Вы можете скачивать файлы