Всегда рабочее зеркало без VPN и Proxy просто перед .vidak.icu напиши любое слово или цифру, Пример http://r6do.vidak.icu

MVO

Лицензия

1 сезон

1

1 сезон

iTunes

1 сезон

13

1 сезон

Deluxe

pack

Рекомендуем

Repack

30

ВАЖНО

RePack

MK11

RePack

jed

RePack

fifa19

RePack

RDR2

RePack

NEED FOR SPEED™ PAYBACK

Кинопоиск HD

6 сезон

 Острые козырьки 6 сезон

Все сериалы

все сериалы на PB.wtf

RePack

FAR CRY 5
  
Magnet ссылка

Вечные / Eternals (Хлоя Чжао) [2021, Фантастика, фэнтези, боевик, драма, приключения, WEB-DL 1080p] [Локализованная версия] DUB [Невафильм] pb.wtf

Вечные через торрент pb.wtf

Раздают: 1 [ 0 KB/s ]
Размер: 12.06 GB | Добавлен: 3 мес. 16 д. назад | Торрент скачан:118 раз
Смотреть онлайн Вечные | Скачать    Ребята, помогите собрать деньги на оплату серверов!!!

21-03-2022 16:22 Вечные Скачать торрент  

Вечные
Eternals

Год выпуска: 2021
Страна: Великобритания, США
Выпущено: Marvel Studios, TSG Entertainment
Жанр: Фантастика, фэнтези, боевик, драма, приключения
Продолжительность: 02:36:15
Перевод: Дублированный | Невафильм
Субтитры: Русские (Forced, full), английские, иврит, эстонские, латышские, литовские, украинские

Режиссер: Хлоя Чжао

rating

В ролях: Джемма Чан, Ричард Мэдден, Анджелина Джоли, Сальма Хайек, Кит Харингтон, Кумэйл Нанджиани, Лиа МакХью, Брайан Тайри Генри, Лорен Ридлофф, Барри Кеоган

Описание: Вечные — представители расы генетически улучшенных суперлюдей, тайно живущих на Земле. Они появились на свет 5 миллионов лет назад в результате экспериментов могущественных целестиалов. Наделённые невероятными суперспособностями, на протяжении тысячелетий они скрывались от человеческой цивилизации,втайне защищая людей от монструозных девиантов. Однако, последние события и действия Таноса заставили их выйти на свет.

Качество: WEB-DL 1080p | ЛОКАЛИЗОВАННЫЙ ВИДЕОРЯД
Формат: MKV

Видео: MPEG-4 AVC, 1920x804 (2.40:1), 23.976 fps, ~9892 kbps
Аудио №1: AC3, 48 kHz, 6 ch, 384 kbps
Аудио №2: E-AC3 ATMOS, 48 kHz, 6 ch, 768 kbps
скриншот  скриншот  скриншот  скриншот  скриншот  

General
Complete name : Eternals.2021.1080p.WEB-DL.DD5.1.H.264-EniaHD.mkv
Format : Matroska
Format version : Version 4
File size : 12.1 GiB
Duration : 2 h 36 min
Overall bit rate : 11.0 Mb/s
Movie name : Eternals (2021) - EniaHD
Writing application : mkvmerge v66.0.0 ('Josie') 64-bit
Writing library : libebml v1.4.2 + libmatroska v1.6.4

Video
ID : 1
Format : AVC
Format/Info : Advanced Video Codec
Format profile : [email protected]
Format settings : CABAC / 5 Ref Frames
Format settings, CABAC : Yes
Format settings, Reference fra : 5 frames
Codec ID : V_MPEG4/ISO/AVC
Duration : 2 h 36 min
Bit rate : 9 892 kb/s
Width : 1 920 pixels
Height : 804 pixels
Display aspect ratio : 2.40:1
Frame rate mode : Constant
Frame rate : 23.976 (24000/1001) FPS
Color space : YUV
Chroma subsampling : 4:2:0
Bit depth : 8 bits
Scan type : Progressive
Bits/(Pixel*Frame) : 0.267
Stream size : 10.8 GiB (90%)
Default : Yes
Forced : No
Color range : Limited
Color primaries : BT.709
Transfer characteristics : BT.709
Matrix coefficients : BT.709

Audio #1
ID : 2
Format : AC-3
Format/Info : Audio Coding 3
Commercial name : Dolby Digital
Codec ID : A_AC3
Duration : 2 h 36 min
Bit rate mode : Constant
Bit rate : 384 kb/s
Channel(s) : 6 channels
Channel layout : L R C LFE Ls Rs
Sampling rate : 48.0 kHz
Frame rate : 31.250 FPS (1536 SPF)
Compression mode : Lossy
Stream size : 429 MiB (3%)
Title : Russian
Language : Russian
Service kind : Complete Main
Default : Yes
Forced : No

Audio #2
ID : 3
Format : E-AC-3 JOC
Format/Info : Enhanced AC-3 with Joint Object Coding
Commercial name : Dolby Digital Plus with Dolby Atmos
Codec ID : A_EAC3
Duration : 2 h 35 min
Bit rate mode : Constant
Bit rate : 768 kb/s
Channel(s) : 6 channels
Channel layout : L R C LFE Ls Rs
Sampling rate : 48.0 kHz
Frame rate : 31.250 FPS (1536 SPF)
Compression mode : Lossy
Stream size : 856 MiB (7%)
Title : English
Language : English
Service kind : Complete Main
Default : No
Forced : No
Complexity index : 16
Number of dynamic objects : 15
Bed channel count : 1 channel
Bed channel configuration : LFE

Text #1
ID : 4
Format : UTF-8
Codec ID : S_TEXT/UTF8
Codec ID/Info : UTF-8 Plain Text
Duration : 2 h 16 min
Bit rate : 0 b/s
Count of elements : 16
Stream size : 669 Bytes (0%)
Title : Russian (Forced)
Language : Russian
Default : Yes
Forced : No

Text #2
ID : 5
Format : UTF-8
Codec ID : S_TEXT/UTF8
Codec ID/Info : UTF-8 Plain Text
Duration : 2 h 33 min
Bit rate : 65 b/s
Count of elements : 1542
Stream size : 74.2 KiB (0%)
Title : Russian
Language : Russian
Default : No
Forced : No

Text #3
ID : 6
Format : UTF-8
Codec ID : S_TEXT/UTF8
Codec ID/Info : UTF-8 Plain Text
Duration : 2 h 33 min
Bit rate : 41 b/s
Count of elements : 1628
Stream size : 46.4 KiB (0%)
Title : English
Language : English
Default : No
Forced : No

Text #4
ID : 7
Format : UTF-8
Codec ID : S_TEXT/UTF8
Codec ID/Info : UTF-8 Plain Text
Duration : 2 h 35 min
Bit rate : 55 b/s
Count of elements : 1649
Stream size : 63.5 KiB (0%)
Title : Hebrew
Language : Hebrew
Default : No
Forced : No

Text #5
ID : 8
Format : UTF-8
Codec ID : S_TEXT/UTF8
Codec ID/Info : UTF-8 Plain Text
Duration : 2 h 35 min
Bit rate : 42 b/s
Count of elements : 1875
Stream size : 48.6 KiB (0%)
Title : Estonian
Language : Estonian
Default : No
Forced : No

Text #6
ID : 9
Format : UTF-8
Codec ID : S_TEXT/UTF8
Codec ID/Info : UTF-8 Plain Text
Duration : 2 h 35 min
Bit rate : 43 b/s
Count of elements : 1675
Stream size : 49.7 KiB (0%)
Title : Latvian
Language : Latvian
Default : No
Forced : No

Text #7
ID : 10
Format : UTF-8
Codec ID : S_TEXT/UTF8
Codec ID/Info : UTF-8 Plain Text
Duration : 2 h 35 min
Bit rate : 39 b/s
Count of elements : 1657
Stream size : 44.4 KiB (0%)
Title : Lithuanian
Language : Lithuanian
Default : No
Forced : No

Text #8
ID : 11
Format : UTF-8
Codec ID : S_TEXT/UTF8
Codec ID/Info : UTF-8 Plain Text
Duration : 2 h 35 min
Bit rate : 64 b/s
Count of elements : 1662
Stream size : 73.5 KiB (0%)
Title : Ukrainian
Language : Ukrainian
Default : No
Forced : No

Menu
00:00:00.000 : en:1
00:06:42.193 : en:2
00:20:21.887 : en:3
00:31:10.702 : en:4
00:35:03.434 : en:5
00:43:00.410 : en:6
00:49:28.005 : en:7
00:55:49.094 : en:8
01:02:28.535 : en:9
01:07:55.528 : en:10
01:10:38.566 : en:11
01:18:57.273 : en:12
01:24:35.778 : en:13
01:29:55.514 : en:14
01:36:02.047 : en:15
01:42:46.576 : en:16
01:46:26.879 : en:17
01:51:50.160 : en:18
01:55:56.948 : en:19
02:01:45.129 : en:20
02:06:29.246 : en:21
02:11:40.890 : en:22
02:16:31.347 : en:23
02:23:09.661 : en:24
02:25:44.023 : en:25
02:27:55.487 : en:26
02:34:26.169 : en:27

pb.wtf



Скачать Вечные через торрент https://i116.fastpic.org/big/2022/0121/6f/0aa58b9f2554f37975e979092837666f.jpg Скачать, смотреть онлайн Вечные бесплантно в хорошем качестве Описание: Вечные — представители расы генетически улучшенных суперлюдей, тайно живущих на Земле. Они появились на свет 5 миллионов лет ... 10 10 6
Торрент: Зарегистрирован [2022-03-21 16:22] · скачан: 118 раз
Статус: √ проверено
Размер: 12.06 GB
Как cкачать? Как скачать Вечные через торрент | UTorrent

% Раздел Тема Автор DL S | L
Фильмы 2021 [DVDrip, WEB-DLRip, HDrip] (DUB, MVO) [ 2.18 GB ] Вечные / Eternals [2021 WEB-DLRip] [Локализованная версия] DUB [Невафильм] bober100 Скачать
2 | 0
3D Фильмы [ 15.72 GB ] Вечные в 3Д / Eternals 3D [2021 BDRip 1080p] OverUnder / Вертикальная стереопара () serega768 Скачать
2 | 0
Фильмы 2021 [DVDrip, WEB-DLRip, HDrip] (DUB, MVO) [ 2.12 GB ] Вечные / Eternals [2021 BDRip] - Twi7ter Скачать
23 | 0
Фильмы (WEB-DL 720p, 1080p) [ 4.82 GB ] Вечные / Eternals [2021 WEB-DL 720p] [IMAX Edition] bober100 Скачать
4 | 0
Ultra HD (UHD: 2K, 4K, 8K) — видео сверхвысокой чёткости [ 46.57 GB ] Вечные / Eternals [2021 UHD BDRemux 2160p] bober100 Скачать
3 | 0
Фильмы [HD 720p, 1080p] (Хороший звук DUB, MVO) [ 14.87 GB ] Вечные / Eternals [2021 BDRip 1080p] DUB +MVO [HDRezka Studio] bober100 Скачать
1 | 0
Фильмы (WEB-DL 720p, 1080p) [ 8.39 GB ] Вечные / Eternals [2021 WEB-DL 1080p] [IMAX Edition] bober100 Скачать
4 | 0

28-11-2019 20:33  

Отключить всю рекламу на сайте

25-03-2022 11:52 Вечные Скачать торрент  

это можно палить?pb.wtf



    Дорогой пользователь! Огромная просьба, поблагодарите релизера, оцените раздачу и оставьте свои комментарий, если Вы скачали Вечные через торрент бесплатно!
    Комментировать посты могут только пользователи прошедшие не сложную регистрацию
    Показать сообщения:    

    Вечные через торрент
    Скачать бесплатно Вечные
    Вечные скачать торрент
    Вечные смотреть онлайн
    Cкачать фильм Вечные бесплатно
    Вечные скачать торрент в хорошем качестве
    Вечные смотреть онлайн бесплатно в хорошем качестве


    Вы не можете начинать темы
    Вы не можете отвечать на сообщения
    Вы не можете редактировать свои сообщения
    Вы не можете удалять свои сообщения
    Вы не можете голосовать в опросах
    Вы не можете прикреплять файлы к сообщениям
    Вы можете скачивать файлы