Всегда рабочее зеркало без VPN и Proxy просто перед .vidak.icu напиши любое слово или цифру, Пример http://xtws.vidak.icu

MVO

Лицензия

1 сезон

1

1 сезон

iTunes

1 сезон

13

1 сезон

Deluxe

pack

Рекомендуем

Repack

30

ВАЖНО

RePack

MK11

RePack

jed

RePack

fifa19

RePack

RDR2

RePack

NEED FOR SPEED™ PAYBACK

Кинопоиск HD

6 сезон

 Острые козырьки 6 сезон

Все сериалы

все сериалы на PB.wtf

RePack

FAR CRY 5
  
Magnet ссылка

Иллюзия контроля (Владэк Занковски) [2021, Триллер, драма, WEB-DL 1080p] [iTunes] pb.wtf

Иллюзия контроля через торрент pb.wtf

Раздают: 2 [ 0.1 KB/s ]
Размер: 2.78 GB | Добавлен: 3 мес. 14 д. назад | Торрент скачан:251 раз
Смотреть онлайн Иллюзия контроля | Скачать    Ребята, помогите собрать деньги на оплату серверов!!!

21-03-2022 18:30 Иллюзия контроля Скачать торрент  

Иллюзия контроля
Год выпуска: 2021
Страна: Великобритания, Украина, Германия
Жанр: Триллер, драма
Продолжительность: 01:30:53
Перевод: Не требуется | iTunes
Субтитры: отсутствуют

Режиссер: Владэк Занковски

rating

В ролях: Олег Фендюра, Татьяна Коновалова, Валерий Бассэль, Евгений Бурый, Юрий Чуланов, Дмитрий Бон, Никита Шумский, Сергей Попов, Александра Рославцева, Андрей Шабанов

Описание: С самого детства Виктор прекрасно манипулировал другими в собственных интересах. Со временем эта способность начинает позволять ему контролировать и направлять крупные финансовые потоки в интересах своих клиентов. Но однажды он обнаруживает, что всю свою жизнь, с самого детства, являлся марионеткой в чьей-то весьма тонко продуманной игре. Пытаясь выяснить, кто за этим стоит, Виктор открывает для себя новые, сложно распознаваемые технологии воздействия на сознание человека.

Качество: WEB-DL 1080p
Формат: MKV

Видео: MPEG-4 AVC, 3999 Kb/s, 1920x1080, 25.000 fps
Аудио: 48 kHz, AC3 Dolby Digital, 3/2 (L, C, R, l, r) + LFE ch, ~384 Kbps
скриншот  скриншот  скриншот  скриншот  

Complete name : Illyuziya.kontrolya.2021.WEB-DL.1080p.ELEKTRI4KA.UNIONGANG.mkv
Format : Matroska
Format version : Version 4
File size : 2.78 GiB
Duration : 1 h 30 min
Overall bit rate : 4 383 kb/s
Movie name : Illyuziya.kontrolya.2021.WEB-DL.1080p.ELEKTRI4KA.UNIONGANG.
Encoded date : UTC 2022-03-21 18:02:06
Writing application : mkvmerge v8.3.0 ('Over the Horizon') 32bit
Writing library : libebml v1.3.1 + libmatroska v1.4.2

Video
ID : 1
Format : AVC
Format/Info : Advanced Video Codec
Format profile : [email protected]
Format settings : CABAC / 3 Ref Frames
Format settings, CABAC : Yes
Format settings, Reference frames : 3 frames
Codec ID : V_MPEG4/ISO/AVC
Duration : 1 h 30 min
Bit rate : 3 999 kb/s
Width : 1 920 pixels
Height : 1 080 pixels
Display aspect ratio : 16:9
Frame rate mode : Constant
Frame rate : 25.000 FPS
Color space : YUV
Chroma subsampling : 4:2:0
Bit depth : 8 bits
Scan type : Progressive
Bits/(Pixel*Frame) : 0.077
Stream size : 2.54 GiB (91%)
Default : Yes
Forced : No

Audio
ID : 2
Format : AC-3
Format/Info : Audio Coding 3
Commercial name : Dolby Digital
Codec ID : A_AC3
Duration : 1 h 30 min
Bit rate mode : Constant
Bit rate : 384 kb/s
Channel(s) : 6 channels
Channel layout : L R C LFE Ls Rs
Sampling rate : 48.0 kHz
Frame rate : 31.250 FPS (1536 SPF)
Compression mode : Lossy
Stream size : 250 MiB (9%)
Title : Original (iTunes)
Language : Russian
Service kind : Complete Main
Default : Yes
Forced : Yes

pb.wtf



Скачать Иллюзия контроля через торрент https://i.postimg.cc/bwJkxNN7/c92cb5bd2fef2d2ae50c244ffd1c18.jpg Скачать, смотреть онлайн Иллюзия контроля бесплантно в хорошем качестве Описание: С самого детства Виктор прекрасно манипулировал другими в собственных интересах. Со временем эта способность начинает позволять ... 8.8 10 8
Торрент: Зарегистрирован [2022-03-21 18:30] · скачан: 251 раз
Статус: √ проверено
Размер: 2.78 GB
Как cкачать? Как скачать Иллюзия контроля через торрент | UTorrent

% Раздел Тема Автор DL S | L
Фильмы 2021 [DVDrip, WEB-DLRip, HDrip] (DUB, MVO) [ 1.46 GB ] Иллюзия контроля [2021 WEB-DLRip] bober100 Скачать
1 | 0
Фильмы 2021 [DVDrip, WEB-DLRip, HDrip] (DUB, MVO) [ 720 MB ] Иллюзия контроля [2021 WEB-DLRip Русский""] coc900 Скачать
2 | 0

28-11-2019 20:33  

Отключить всю рекламу на сайте

24-04-2022 17:26 Иллюзия контроля Скачать торрент  

Классный фильмpb.wtf



    Дорогой пользователь! Огромная просьба, поблагодарите релизера, оцените раздачу и оставьте свои комментарий, если Вы скачали Иллюзия контроля через торрент бесплатно!
    Комментировать посты могут только пользователи прошедшие не сложную регистрацию
    Показать сообщения:    

    Иллюзия контроля через торрент
    Скачать бесплатно Иллюзия контроля
    Иллюзия контроля скачать торрент
    Иллюзия контроля смотреть онлайн
    Cкачать фильм Иллюзия контроля бесплатно
    Иллюзия контроля скачать торрент в хорошем качестве
    Иллюзия контроля смотреть онлайн бесплатно в хорошем качестве


    Вы не можете начинать темы
    Вы не можете отвечать на сообщения
    Вы не можете редактировать свои сообщения
    Вы не можете удалять свои сообщения
    Вы не можете голосовать в опросах
    Вы не можете прикреплять файлы к сообщениям
    Вы можете скачивать файлы