Всегда рабочее зеркало без VPN и Proxy просто перед .vidak.icu напиши любое слово или цифру, Пример http://r9ck.vidak.icu

MVO

2 сезон

1 сезон

1

1 сезон

iTunes

2 сезон

13

1 сезон

Deluxe

pack

Рекомендуем

Пиратка

30

ВАЖНО

RePack

MK11

RePack

jed

RePack

fifa19

RePack

RDR2

RePack

NEED FOR SPEED™ PAYBACK

Кинопоиск HD

6 сезон

 Острые козырьки 6 сезон

Все сериалы

все сериалы на PB.wtf

RePack

FAR CRY 5

Anonymous, нам критически не хватает 5601 руб. на оплату серверов и переферии за Апрель, помоги нам пожалуйста, вся надежда только на тебя. В благодарность мы отключим тебе всю рекламу на сайте!

×
  
Magnet ссылка

Другое имя (Вета Гераськина) [2022, Драма, триллер, WEB-DLRip-AVC] RUS [IVI] от ExKinoRay pb.wtf

Другое имя через торрент pb.wtf

Раздают: 4 [ 4 KB/s ]
Размер: 1.52 GB | Добавлен: 2 мес. 1 д. назад | Торрент скачан:101 раз
Смотреть онлайн Другое имя | Скачать    Ребята, помогите собрать деньги на оплату серверов!!!

22-03-2022 18:23 Другое имя Скачать торрент  


Другое имя
Информация о фильме:
Название: Другое имя
Год выхода: 2022
Жанр: драма, триллер
Режиссер: Вета Гераськина
В ролях: Светлана Ходченкова, Якоб Диль, Анастасия Цой, Катя Федина, Татьяна Ратникова, Александра Кроткова, Ирина Прокудина, Лера Гущенко, Полина Кутепова, Александра Черкасова-Служитель

Описание: Лиза живет в мире «премиум класса»: её дни протекают в минимализме бесцветных интерьеров и отчужденной сдержанности чувств, в их с мужем загородном доме нет детей, но есть элегантные борзые собаки. Однако холодное спокойствие, присущее Лизе, методично подтачивает постыдная тайна из её прошлого. Тайна, которая постепенно превращает жизнь женщины в необратимый кошмар. С каждым днем скрываться становится все более мучительно и невыносимо. Но как далеко она способна зайти, чтобы сохранить свой секрет?



Страна: Россия
Студия: Vega Film
Продолжительность: 01:37:31
Перевод: Оригинал | IVI



Информация о файле:
Кодек: AVC
Формат: MKV
Качество: WEB-DLRip-AVC
Видео: MPEG-4 AVC, 1024x458, 24.000 fps, 1850 kbps
Аудио RU: AC3, 6 ch, 48 kHz, 384 kbps

x264 info: frame I:696 Avg QP: 9.89 size: 59593
x264 info: frame P:29118 Avg QP:12.48 size: 21983
x264 info: frame B:110609 Avg QP:13.04 size: 6073
General
Unique ID : 148459226251648253315661741708506317502 (0x6FB034F9BFA2EDCBF785346168C042BE)
Complete name : D:uTorrentРипы wolf1245DRUGOE IMIA.2022.RUS.IVI.x264.WEB-DLRip-AVC.[wolf1245.ExKinoRay].mkv
Format : Matroska
Format version : Version 4
File size : 1.52 GiB
Duration : 1 h 37 min
Overall bit rate : 2 236 kb/s
Movie name : DRUGOE IMIA.2022.RUS.IVI.x264.WEB-DLRip-AVC.[wolf1245.ExKinoRay]
Encoded date : UTC 2022-03-22 18:06:08
Writing application : mkvmerge v66.0.0 ('Josie') 64-bit
Writing library : libebml v1.4.2 + libmatroska v1.6.4
Video
ID : 1
Format : AVC
Format/Info : Advanced Video Codec
Format profile : High@L4.1
Format settings : CABAC / 10 Ref Frames
Format settings, CABAC : Yes
Format settings, Reference frames : 10 frames
Codec ID : V_MPEG4/ISO/AVC
Duration : 1 h 37 min
Bit rate : 1 850 kb/s
Width : 1 024 pixels
Height : 458 pixels
Display aspect ratio : 2.25:1
Frame rate mode : Constant
Frame rate : 24.000 FPS
Color space : YUV
Chroma subsampling : 4:2:0
Bit depth : 8 bits
Scan type : Progressive
Bits/(Pixel*Frame) : 0.164
Stream size : 1.26 GiB (83%)
Title : -=[wolf1245.ExKinoRay]=-
Writing library : x264 core 163 r3060 5db6aa6
Encoding settings : cabac=1 / ref=10 / deblock=1:-2:-2 / analyse=0x3:0x133 / me=umh / subme=10 / psy=1 / psy_rd=1.00:0.20 / mixed_ref=1 / me_range=32 / chroma_me=1 / trellis=2 / 8x8dct=1 / cqm=0 / deadzone=22,11 / fast_pskip=1 / chroma_qp_offset=-3 / threads=10 / lookahead_threads=2 / sliced_threads=0 / nr=0 / decimate=0 / interlaced=0 / bluray_compat=0 / constrained_intra=0 / bframes=10 / b_pyramid=2 / b_adapt=2 / b_bias=0 / direct=3 / weightb=1 / open_gop=0 / weightp=2 / keyint=240 / keyint_min=24 / scenecut=40 / intra_refresh=0 / rc_lookahead=60 / rc=2pass / mbtree=0 / bitrate=1850 / ratetol=1.0 / qcomp=0.60 / qpmin=0 / qpmax=69 / qpstep=4 / cplxblur=20.0 / qblur=0.5 / vbv_maxrate=50000 / vbv_bufsize=62500 / nal_hrd=none / filler=0 / ip_ratio=1.40 / pb_ratio=1.30 / aq=3:1.00
Language : Russian
Default : Yes
Forced : No
Audio
ID : 2
Format : AC-3
Format/Info : Audio Coding 3
Commercial name : Dolby Digital
Codec ID : A_AC3
Duration : 1 h 37 min
Bit rate mode : Constant
Bit rate : 384 kb/s
Channel(s) : 6 channels
Channel layout : L R C LFE Ls Rs
Sampling rate : 48.0 kHz
Frame rate : 31.250 FPS (1536 SPF)
Compression mode : Lossy
Stream size : 268 MiB (17%)
Title : Original | IVI | RUS
Language : Russian
Service kind : Complete Main
Default : Yes
Forced : Yes
Релиз от:
Автор релиза:
pb.wtf



Скачать Другое имя через торрент http://i116.fastpic.org/big/2022/0322/5b/ad326cf0af1930f1d8a0c18fa3b7ab5b.jpg Скачать, смотреть онлайн Другое имя бесплантно в хорошем качестве Описание: Лиза живет в мире «премиум класса»: её дни протекают в минимализме бесцветных интерьеров и отчужденной сдержанности чувств, в ... 7 10 7
Торрент: Зарегистрирован [2022-03-22 18:23] · скачан: 101 раз
Статус: √ проверено
Размер: 1.52 GB
Как cкачать? Как скачать Другое имя через торрент | UTorrent

28-11-2019 20:33  

Отключить всю рекламу на сайте

    Дорогой пользователь! Огромная просьба, поблагодарите релизера, оцените раздачу и оставьте свои комментарий, если Вы скачали Другое имя через торрент бесплатно!
    Комментировать посты могут только пользователи прошедшие не сложную регистрацию
    Показать сообщения:    

    Другое имя через торрент
    Скачать бесплатно Другое имя
    Другое имя скачать торрент
    Другое имя смотреть онлайн
    Cкачать фильм Другое имя бесплатно
    Другое имя скачать торрент в хорошем качестве
    Другое имя смотреть онлайн бесплатно в хорошем качестве


    Вы не можете начинать темы
    Вы не можете отвечать на сообщения
    Вы не можете редактировать свои сообщения
    Вы не можете удалять свои сообщения
    Вы не можете голосовать в опросах
    Вы не можете прикреплять файлы к сообщениям
    Вы можете скачивать файлы