Всегда рабочее зеркало без VPN и Proxy просто перед .vidak.icu напиши любое слово или цифру, Пример http://yget.vidak.icu

MVO

Лицензия

1 сезон

1

1 сезон

iTunes

1 сезон

13

1 сезон

Deluxe

pack

Рекомендуем

Пиратка

30

ВАЖНО

RePack

MK11

RePack

jed

RePack

fifa19

RePack

RDR2

RePack

NEED FOR SPEED™ PAYBACK

Кинопоиск HD

6 сезон

 Острые козырьки 6 сезон

Все сериалы

все сериалы на PB.wtf

RePack

FAR CRY 5
  
Magnet ссылка

Календарь дьявола / Le calendrier / The Advent Calendar (Патрик Ридремон) [2021, Ужасы, триллер, BD Remux 1080p] DUB [iTunes] pb.wtf

Календарь дьявола через торрент pb.wtf

Размер: 24.74 GB | Добавлен: 3 мес. 9 д. назад | Торрент скачан:29 раз
Смотреть онлайн Календарь дьявола | Скачать    Ребята, помогите собрать деньги на оплату серверов!!!

23-03-2022 18:16 Календарь дьявола Скачать торрент  

Календарь дьявола
Le calendrier
The Advent Calendar

Год выпуска: 2021
Страна: Франция, Бельгия
Выпущено: Sombrero Films, Siddhi Films, Frakas Productions
Жанр: Ужасы, триллер
Продолжительность: 01:44:58
Перевод: Дублированный | iTunes
Субтитры: отсутствуют

Режиссер: Патрик Ридремон

rating

В ролях: Южени Деруан, Онорин Манье, Клеман Оливери, Янис Абрих, Сирил Гарнье, Владимир Перрин, Фабьен Жегуде, Жером Пакватт, Лора Пресгурвич, Изабель Танакил

Описание: Бывшая танцовщица Ева теперь прикована к инвалидному креслу. Однажды подруга дарит ей на день рождения старинный деревянный календарь похожий на маленький комод. Оказывается, что за каждой дверцей календаря, которые нужно открывать в соответствующие числа месяца, лежит волшебная конфета — исполнение желания. Но каждое желание имеет свою цену, а приняв условия игры, отказаться от неё уже невозможно.

Качество: BD Remux 1080p
Формат: MKV

Видео: MPEG-4 AVC, 29.7 Мb/s, 1920x1080 at 24.000 fps
Аудио#1: Russian: AC3, 384 Kb/s (6 ch)
Аудио#2: French: DTS-HD MA, 3666 Kb/s (6 ch)
скриншот  скриншот  скриншот  скриншот  

Complete name : Kalendar.dyavola.2021.BDREMUX.1080p.ELEKTRI4KA.UNIONGANG.mkv
Format : Matroska
Format version : Version 4
File size : 24.7 GiB
Duration : 1 h 44 min
Overall bit rate mode : Variable
Overall bit rate : 33.7 Mb/s
Movie name : Kalendar.dyavola.2021.BDREMUX.1080p.ELEKTRI4KA.UNIONGANG.
Encoded date : UTC 2022-03-21 23:04:43
Writing application : mkvmerge v8.3.0 ('Over the Horizon') 32bit
Writing library : libebml v1.3.1 + libmatroska v1.4.2

Video
ID : 1
Format : AVC
Format/Info : Advanced Video Codec
Format profile : High@L4.1
Format settings : CABAC / 4 Ref Frames
Format settings, CABAC : Yes
Format settings, Reference frames : 4 frames
Format settings, GOP : M=1, N=12
Codec ID : V_MPEG4/ISO/AVC
Duration : 1 h 44 min
Bit rate mode : Variable
Bit rate : 29.7 Mb/s
Maximum bit rate : 37.0 Mb/s
Width : 1 920 pixels
Height : 1 080 pixels
Display aspect ratio : 16:9
Frame rate mode : Constant
Frame rate : 24.000 FPS
Color space : YUV
Chroma subsampling : 4:2:0
Bit depth : 8 bits
Scan type : Progressive
Bits/(Pixel*Frame) : 0.597
Stream size : 21.8 GiB (88%)
Default : Yes
Forced : No

Audio #1
ID : 2
Format : AC-3
Format/Info : Audio Coding 3
Commercial name : Dolby Digital
Codec ID : A_AC3
Duration : 1 h 44 min
Bit rate mode : Constant
Bit rate : 384 kb/s
Channel(s) : 6 channels
Channel layout : L R C LFE Ls Rs
Sampling rate : 48.0 kHz
Frame rate : 31.250 FPS (1536 SPF)
Compression mode : Lossy
Stream size : 288 MiB (1%)
Title : DUB (iTunes)
Language : Russian
Service kind : Complete Main
Default : Yes
Forced : Yes

Audio #2
ID : 3
Format : DTS XLL
Format/Info : Digital Theater Systems
Commercial name : DTS-HD Master Audio
Codec ID : A_DTS
Duration : 1 h 44 min
Bit rate mode : Variable
Bit rate : 3 666 kb/s
Channel(s) : 6 channels
Channel layout : C L R Ls Rs LFE
Sampling rate : 48.0 kHz
Frame rate : 93.750 FPS (512 SPF)
Bit depth : 24 bits
Compression mode : Lossless
Stream size : 2.69 GiB (11%)
Title : Original
Language : French
Default : No
Forced : No

Menu
00:00:00.000 : en:00:00:00.000
00:11:33.500 : en:00:11:33.500
00:17:23.292 : en:00:17:23.292
00:26:00.792 : en:00:26:00.792
00:35:14.875 : en:00:35:14.875
00:46:04.750 : en:00:46:04.750
00:53:59.333 : en:00:53:59.333
01:06:34.667 : en:01:06:34.667
01:13:33.333 : en:01:13:33.333
01:23:27.208 : en:01:23:27.208
01:30:03.167 : en:01:30:03.167
01:40:16.500 : en:01:40:16.500

pb.wtf



Скачать Календарь дьявола через торрент https://i.postimg.cc/L897VVSh/image.png Скачать, смотреть онлайн Календарь дьявола бесплантно в хорошем качестве Описание: Бывшая танцовщица Ева теперь прикована к инвалидному креслу. Однажды подруга дарит ей на день рождения старинный деревянный ... 10 10 3
Торрент: Зарегистрирован [2022-03-23 18:16] · скачан: 29 раз
Статус: √ проверено
Размер: 24.74 GB
Как cкачать? Как скачать Календарь дьявола через торрент | UTorrent

% Раздел Тема Автор DL S | L
Фильмы [HD 720p, 1080p] (Хороший звук DUB, MVO) [ 4.79 GB ] Календарь дьявола / Le calendrier / The Advent Calendar [2021 BDRip 720p] bober100 Скачать
2 | 0
Фильмы 2021 [DVDrip, WEB-DLRip, HDrip] (DUB, MVO) [ 747 MB ] Календарь дьявола / Le calendrier / The Advent Calendar [2021 HDRip] bober100 Скачать
1 | 0
Фильмы 2021 [DVDrip, WEB-DLRip, HDrip] (DUB, MVO) [ 1.46 GB ] Календарь дьявола / Le calendrier / The Advent Calendar [2021 BDRip] bober100 Скачать
6 | 0
Фильмы [HD 720p, 1080p] (Хороший звук DUB, MVO) [ 9.18 GB ] Календарь дьявола / Le calendrier / The Advent Calendar [2021 BDRip 1080p] bober100 Скачать
2 | 0

28-11-2019 20:33  

Отключить всю рекламу на сайте

    Дорогой пользователь! Огромная просьба, поблагодарите релизера, оцените раздачу и оставьте свои комментарий, если Вы скачали Календарь дьявола через торрент бесплатно!
    Комментировать посты могут только пользователи прошедшие не сложную регистрацию
    Показать сообщения:    

    Календарь дьявола через торрент
    Скачать бесплатно Календарь дьявола
    Календарь дьявола скачать торрент
    Календарь дьявола смотреть онлайн
    Cкачать фильм Календарь дьявола бесплатно
    Календарь дьявола скачать торрент в хорошем качестве
    Календарь дьявола смотреть онлайн бесплатно в хорошем качестве


    Вы не можете начинать темы
    Вы не можете отвечать на сообщения
    Вы не можете редактировать свои сообщения
    Вы не можете удалять свои сообщения
    Вы не можете голосовать в опросах
    Вы не можете прикреплять файлы к сообщениям
    Вы можете скачивать файлы