Достать ножи: Стеклянная луковица

MVO

Добыча

Дубляж

Уэнсдэй

1 сезон

Тор

Дубляж

13 клиническая

1 сезон

Жестокая ночь

MVO

Одни из нас

1 сезон

Deluxe

pack

Рекомендуем

30

Пиратка

ВАЖНО

ВАЖНО

Ghostwire

Пиратка

jed

RePack

nioh2

RePack

RDR2

RePack

NEED FOR SPEED™ PAYBACK

RePack

скачать торрент

Кинопоиск HD

Острые козырьки 6 сезон

6 сезон

FAR CRY 6

RePack

скачать торрент

Лицензия

скачать торрент

MVO

1

1 сезон

скачать торрент

1 сезон

скачать торрент

Лицензия

  

Осатанелые / Diabolical / Сезон: 1 / Серии: 1-8 из 8 (Джанкарло Вольпе) [2022, фантастика, боевик, драма, комедия, WEB-DL 1080p] 2x [MVO] (LostFilm, HDRezka)

Осатанелые через торрент pb.wtf

Размер: 6.52 GB | Добавлен: 10 мес. назад | Торрент скачан:159 раз
Смотреть онлайн | Скачать | Поддержите нас   

24-03-2022 10:05 Осатанелые Скачать торрент  

Осатанелые | Diabolical
«***»

Год выпуска: 2022
Страна: США
Жанр: фантастика, боевик, драма, комедия
Продолжительность: ~ 00:13:00 серия
Перевод №1: Профессиональный (многоголосый закадровый) | LostFilm
Перевод №2: Профессиональный (многоголосый закадровый) | HDRezka

Режиссер: Джанкарло Вольпе, Стив Ан, Matthew Bordenave

В главных ролях: Грэй Гриффин (Grey Griffin), Бен Шварц (Ben Schwartz), Энтони Старр (Antony Starr), Крис Диамантополос (Chris Diamantopoulos), Анджела Мари Волп (Angela Marie Volpe), Аквафина (Awkwafina), Сет Роген (Seth Rogen), Элизабет Шу (Elisabeth Shue), Джейсон Айзекс (Jason Isaacs), Кумэйл Нанджиани (Kumail Nanjiani), Назим Педрад (Nasim Pedrad), Киран Калкин (Kieran Culkin)
Описание:
В мире, где лидерство рынка захватила могущественная корпорация Vought, не осталось никаких человеческих ценностей. Родители отдают своих детей на эксперименты, чтобы разбогатеть, а если приобретенная сила окажется отстойной, бросают их. Вот только взбесившиеся суперы не готовы с мириться с таким уделом и отправляются мстить предкам. Так образовывается команда из весьма жалких героев — Призрак, которая не может поесть, хотя всегда голодна, Супермедленный парень, Парень с раскаленными яйцами, Человек-язык, Сиськолицый герой, Человек-флешбэк и другие убогие фрики. Между тем где-то в лабораториях Vought проходят испытания над Лазер-крохой, которая активирует свое убийственное зрение только при кашле, чихании и икоте. Компания решает уничтожить ее как бракованные образец, но один ученый вступается за младенца. В то же время сложные времена проходит семья супергероев — Нубийский принц, Нубия и их дочь. Способности способностями, а бытовые разборки и все прелести развода никто не отменял. Ну а если вы в детстве вообще не попали ни в одну из программ Vought, не отчаивайтесь — простым смертным предлагается поучаствовать в опытах. Специальный крем сделает из вас красавчика, каким вы всегда мечтали стать. Осторожно: побочные эффекты включают в себя возможный взрыв головы. И только Мясник во всем этом хаосе непоколебим. Он делает то, что умеет лучше всех, — истребляет зарвавшихся ублюдков со сверхсилами красиво, всеми возможными и весьма изощренными способами…



Качество видео: WEB-DL 1080p
Формат: MKV
Видео: AVC, 1920 x 1080 (1.778), 23.976 fps, ~7 701 kbps
Аудио Rus: AC-3, 48 kHz, 6 ch, 640 kbps |LostFilm| * 1-6 серии
Аудио Rus: AC-3, 48 kHz, 6 ch, 448 kbps |HDRezka|
Аудио Eng: E-AC-3, 48 kHz, 6 ch, 640 kbps |Original|
Субтитры: Rus (Full, forced |Amazon|), Eng (SDH)
*Работа со звуком: serial_M
Реклама: Отсутствует


Общее
Уникальный идентификатор : 152789051150052436569124501701393377628 (0x72F219D32B60408429F88CE2DF3FE95C)
Полное имя : E:\_Сериалы\_Сериалы\Осатанелые\The.Boys.Presents.Diabolical.S01.WEB-DL.1080p.Rus.Eng\The.Boys.Presents.Diabolical.S01E01.WEB-DL.1080p.RGzsRutracker.mkv
Формат : Matroska
Версия формата : Version 4
Размер файла : 973 Мбайт
Продолжительность : 13 м. 46 с.
Общий поток : 9 879 Кбит/сек
Дата кодирования : UTC 2022-03-22 17:58:25
Программа кодирования : mkvmerge v66.0.0 ('Josie') 64-bit
Библиотека кодирования : libebml v1.4.2 + libmatroska v1.6.4

Видео
Идентификатор : 1
Формат : AVC
Формат/Информация : Advanced Video Codec
Профиль формата : [email protected]
Настройки формата : CABAC / 4 Ref Frames
Параметр CABAC формата : Да
Параметр RefFrames формата : 4 кадра
Идентификатор кодека : V_MPEG4/ISO/AVC
Продолжительность : 13 м. 46 с.
Вид битрейта : Постоянный
Битрейт : 7 701 Кбит/сек
Номинальный битрейт : 10 000 Кбит/сек
Ширина : 1 920 пикселей
Высота : 1 080 пикселей
Соотношение сторон : 16:9
Режим частоты кадров : Постоянный
Частота кадров : 23,976 (24000/1001) кадра/сек
Цветовое пространство : YUV
Субдискретизация насыщенности : 4:2:0
Битовая глубина : 8 бит
Тип развёртки : Прогрессивная
Бит/(Пиксели*Кадры) : 0.155
Размер потока : 758 Мбайт (78%)
Язык : English
Default : Да
Forced : Нет
Цветовой диапазон : Limited
Основные цвета : BT.709
Характеристики трансфера : BT.709
Коэффициенты матрицы : BT.709

Аудио #1
Идентификатор : 2
Формат : AC-3
Формат/Информация : Audio Coding 3
Коммерческое название : Dolby Digital
Идентификатор кодека : A_AC3
Продолжительность : 13 м. 46 с.
Вид битрейта : Постоянный
Битрейт : 640 Кбит/сек
Каналы : 6 каналов
Channel layout : L R C LFE Ls Rs
Частота : 48,0 КГц
Частота кадров : 31,250 кадров/сек (1536 SPF)
Метод сжатия : С потерями
Размер потока : 63,0 Мбайт (6%)
Заголовок : LostFilm 5.1
Язык : Russian
Service kind : Complete Main
Default : Да
Forced : Нет

Аудио #2
Идентификатор : 3
Формат : AC-3
Формат/Информация : Audio Coding 3
Коммерческое название : Dolby Digital
Идентификатор кодека : A_AC3
Продолжительность : 13 м. 46 с.
Вид битрейта : Постоянный
Битрейт : 448 Кбит/сек
Каналы : 6 каналов
Channel layout : L R C LFE Ls Rs
Частота : 48,0 КГц
Частота кадров : 31,250 кадров/сек (1536 SPF)
Метод сжатия : С потерями
Размер потока : 44,1 Мбайт (5%)
Заголовок : HDr
Язык : Russian
Service kind : Complete Main
Default : Нет
Forced : Нет

Аудио #3
Идентификатор : 4
Формат : AC-3
Формат/Информация : Audio Coding 3
Коммерческое название : Dolby Digital
Идентификатор кодека : A_AC3
Продолжительность : 13 м. 46 с.
Вид битрейта : Постоянный
Битрейт : 448 Кбит/сек
Каналы : 6 каналов
Channel layout : L R C LFE Ls Rs
Частота : 48,0 КГц
Частота кадров : 31,250 кадров/сек (1536 SPF)
Метод сжатия : С потерями
Размер потока : 44,1 Мбайт (5%)
Заголовок : HDr 18+
Язык : Russian
Service kind : Complete Main
Default : Нет
Forced : Нет

Аудио #4
Идентификатор : 5
Формат : E-AC-3
Формат/Информация : Enhanced AC-3
Коммерческое название : Dolby Digital Plus
Идентификатор кодека : A_EAC3
Продолжительность : 13 м. 46 с.
Вид битрейта : Постоянный
Битрейт : 640 Кбит/сек
Каналы : 6 каналов
Channel layout : L R C LFE Ls Rs
Частота : 48,0 КГц
Частота кадров : 31,250 кадров/сек (1536 SPF)
Метод сжатия : С потерями
Размер потока : 63,0 Мбайт (6%)
Заголовок : Eng
Язык : English
Service kind : Complete Main
Default : Нет
Forced : Нет

Текст #1
Идентификатор : 6
Формат : UTF-8
Идентификатор кодека : S_TEXT/UTF8
Идентификатор кодека/Информация : UTF-8 Plain Text
Продолжительность : 11 м. 14 с.
Битрейт : 12 бит/сек
Count of elements : 23
Размер потока : 1,02 Кбайт (0%)
Заголовок : Forc
Язык : Russian
Default : Да
Forced : Нет

Текст #2
Идентификатор : 7
Формат : UTF-8
Идентификатор кодека : S_TEXT/UTF8
Идентификатор кодека/Информация : UTF-8 Plain Text
Продолжительность : 12 м. 21 с.
Битрейт : 16 бит/сек
Count of elements : 34
Размер потока : 1,49 Кбайт (0%)
Заголовок : Rus
Язык : Russian
Default : Нет
Forced : Нет

Текст #3
Идентификатор : 8
Формат : UTF-8
Идентификатор кодека : S_TEXT/UTF8
Идентификатор кодека/Информация : UTF-8 Plain Text
Продолжительность : 9 м. 20 с.
Битрейт : 1 бит/сек
Count of elements : 16
Размер потока : 104 байт (0%)
Заголовок : Eng
Язык : English
Default : Нет
Forced : Нет

Текст #4
Идентификатор : 9
Формат : UTF-8
Идентификатор кодека : S_TEXT/UTF8
Идентификатор кодека/Информация : UTF-8 Plain Text
Продолжительность : 11 м. 56 с.
Битрейт : 22 бит/сек
Count of elements : 158
Размер потока : 1,97 Кбайт (0%)
Заголовок : SDH
Язык : English
Default : Нет
Forced : Нет

Меню
00:00:00.000 : en:Amazon Original
00:00:06.000 : en:Studio Logo
00:00:14.000 : en:Opening Credits
00:00:30.000 : en:Scene 4
00:01:34.000 : en:Scene 5
00:03:13.000 : en:Scene 6
00:04:02.000 : en:Scene 7
00:04:24.000 : en:Scene 8
00:04:47.000 : en:Scene 9
00:06:01.000 : en:Scene 10
00:06:47.000 : en:Scene 11
00:07:23.000 : en:Scene 12
00:08:16.000 : en:Scene 13
00:11:39.000 : en:End Credits

скриншот  скриншот  скриншот  

Раздача ведётся путём добавления новых серий; при каждом добавлении создаётся новый торрент.
Чтобы начать докачку новой серии, пользователям необходимо сделать следующее:
1. остановить скачивание,
2. удалить старый торрент у себя из клиента (старые серии удалять не надо),
3. скачать новый торрент и запустить его у себя в клиенте вместо старого, при этом указать клиенту путь в старую папку, куда и должно происходить скачивание новых серий.

Ваш клиент при этом должен произвести хеширование (проверку) старой папки (если не производит сам - помогите ему сделать это), и будет докачивать только те серии которых у вас ещё нет. Старые серии при этом не удаляются, а продолжают раздаваться!

Eсли вы уже удалили старые серии, то предотвратить повторную закачку старых серий можно, отжав галочку в соответствующих местах при запуске нового торрента. По возможности, желательно не удалять старые серии как можно дольше, чтобы релизёр не столько продолжал раздавать старые серии, а смог сконцентрироваться на новых.

Совет для тех, кто не хочет ждать перехеширования:
Создайте ещё одну папку рядом с папкой сериала (рядом, а не в ней!!!). Каждую новую серию после удачной загрузки копируйте в новую папку так чтобы ваша основная папка всегда была пуста. Когда ваш новый торрент предложит вам закачать все файлы, выберете только последнюю. Для сидирования же укажите адрес новой папки.

Как закачать отдельный файл из торрента или докачать ранее пропущенные файлы торрента!

1. Открыть торрент
2. Снять галки с тех файлов торрента, которые мы не хотим закачивать. Оставляем только на нужных нам файлах (файле).
3. Нажать О.К.

В клиенте utorrent

Инструкция

1) Открыть торрент


2) Снять галки с тех файлов торрента, которые мы не хотим закачивать:

* либо вручную, снимая с каждого файла галку( скрин №1)
* либо, нажав кнопку "Снять метки (Select None)", сняв сразу со всех файлов(скрин №2)
№1

№2

Оставляем только на нужных нам файлах (файле).

3)Нажать О.К



Скачать Осатанелые через торрент https://i2-imageban-ru.translate.goog/out/2022/03/11/e6677a3f79ffc9aeb9fa5543f76463e3.png Скачать, смотреть онлайн Осатанелые бесплантно в хорошем качестве Описание:В мире, где лидерство рынка захватила могущественная корпорация Vought, не осталось никаких человеческих ценностей. Родители ... 10 10 5
Торрент: Зарегистрирован [2022-03-24 10:05] · скачан: 159 раз
Статус: √ проверено
Размер: 6.52 GB
Как cкачать? Как скачать Осатанелые через торрент | UTorrent

28-11-2019 20:33  


Отключить вcю реклaмy на сайте, в т.ч. и в плеере онлайн просмотра!

    Дорогой пользователь! Огромная просьба, поблагодарите релизера, оцените раздачу и оставьте свои комментарий, если Вы скачали Осатанелые через торрент бесплатно!!
    Комментировать посты могут только пользователи прошедшие не сложную регистрацию
    Показать сообщения:    


    Осатанелые через торрент
    Скачать бесплатно Осатанелые
    Осатанелые скачать торрент
    Осатанелые смотреть онлайн
    Cкачать фильм Осатанелые бесплатно
    Осатанелые скачать торрент в хорошем качестве
    Осатанелые смотреть онлайн бесплатно в хорошем качестве
    Вы не можете начинать темы
    Вы не можете отвечать на сообщения
    Вы не можете редактировать свои сообщения
    Вы не можете удалять свои сообщения
    Вы не можете голосовать в опросах
    Вы не можете прикреплять файлы к сообщениям
    Вы можете скачивать файлы
    Осатанелые / Diabolical / Сезон: 1 / Серии: 1-8 из 8 [2022, фантастика, боевик, драма, комедия, WEB-DL 1080p] 2x [MVO] смотреть онлайн, скачать торрент picoco.icu