Всегда рабочее зеркало без VPN и Proxy просто перед .vidak.icu напиши любое слово или цифру, Пример http://1g38.vidak.icu

MVO

Лицензия

1 сезон

1

1 сезон

iTunes

1 сезон

13

1 сезон

Deluxe

pack

Рекомендуем

Пиратка

30

ВАЖНО

RePack

MK11

RePack

jed

RePack

fifa19

RePack

RDR2

RePack

NEED FOR SPEED™ PAYBACK

Кинопоиск HD

6 сезон

 Острые козырьки 6 сезон

Все сериалы

все сериалы на PB.wtf

RePack

FAR CRY 5

Anonymous, нам критически не хватает 2100 руб. на оплату серверов и переферии за МАЙ, помоги нам пожалуйста, вся надежда только на тебя. В благодарность мы отключим тебе всю рекламу на сайте!

×
  
Magnet ссылка

Хало / Halo / Сезон: 1 / Серии: 1- из 9 (Отто Батхёрст, Джонатан Либесман, Роэль Рейн) [2022, Фантастика, боевик, WEB-DLRip] MVO [LostFilm] pb.wtf

Хало через торрент pb.wtf

Размер: 842 MB | Добавлен: 2 мес. 25 д. назад | Торрент скачан:18 раз
Смотреть онлайн Хало | Скачать    Ребята, помогите собрать деньги на оплату серверов!!!

26-03-2022 02:10 Хало Скачать торрент  

Halo | Halo
«***»
Год выпуска: 2022
Страна: США
Студия: 343 Industries, Amblin Television, Chapter Eleven, Microsoft, Microsoft Studios, One Big Picture, Showtime
Жанр: Фантастика, боевик
Продолжительность: ~ 00:59:00
Перевод: Профессиональный (многоголосый) | LostFilm
Субтитры: отсутствуют

Режиссер: Отто Батхёрст, Джонатан Либесман, Роэль Рейн

rating

В ролях: Пабло Шрайбер, Наташа МакЭлхоун, Ерин Ха, Боким Вудбайн, Джен Тейлор, Шабана Азми, Олив Грэй, Чарли Мёрфи, Кейт Кеннеди, Бентли Калу

Описание: В XXVI веке между земными силами Космического командования Объединённых наций и религиозным союзом нескольких инопланетных рас идёт ожесточённая война. Люди изо всех сил борются за выживание, но всё же сдают позиции на всех фронтах. Последней надеждой становится проект SPARTAN-II — программа создания усиленных людей, которые должны стать самым эффективным оружием в борьбе с пришельцами.
Противники находят и уничтожают планету вместе со спартанцами. Спастись удаётся всего одному кораблю — «Столпу осени», на котором находится последний выживший спартанец Джон-117. Именно ему предстоит изменить ход войны, когда он оказывается на загадочном инопланетном артефакте Halo — мире-кольце.

Качество: WEB-DLRip
Формат: AVI

Видео: 704x352 (2.000), 24.000 fps, XviD, 1600 Kbps, 0.26 bit/pixel
Аудио Rus: AC3, 48 kHz, 2 ch, 192 kbps
Аудио Eng: AC3, 48 kHz, 2 ch, 192 kbps
скриншот  скриншот  скриншот  скриншот  скриншот  

General
Complete name : Downloads\Halo.S01.2022.WEB-DLRip.LostFilm\Halo.S01.E01.WEB-DLRip.Rus.Eng.by.Сибиряk.avi
Format : AVI
Format/Info : Audio Video Interleave
File size : 842 MiB
Duration : 58 min 56 s
Overall bit rate : 1 998 kb/s
Movie name : Halo - S01E01 - Contact
Writing application : VirtualDubMod 1.5.10.2 (build 2540/release)
Writing library : VirtualDubMod build 2540/release
Video #0
ID : 0
Format : MPEG-4 Visual
Format profile : Advanced Simple@L5
Format settings : BVOP1
Format settings, BVOP : 1
Format settings, QPel : No
Format settings, GMC : No warppoints
Format settings, Matrix : Default (H.263)
Codec ID : XVID
Codec ID/Hint : XviD
Duration : 58 min 56 s
Bit rate : 1 600 kb/s
Width : 704 pixels
Height : 352 pixels
Display aspect ratio : 2.000
Frame rate : 24.000 FPS
Color space : YUV
Chroma subsampling : 4:2:0
Bit depth : 8 bits
Scan type : Progressive
Compression mode : Lossy
Bits/(Pixel*Frame) : 0.269
Stream size : 674 MiB (80%)
Writing library : XviD 69
Audio #1
ID : 1
Format : AC-3
Format/Info : Audio Coding 3
Codec ID : 2000
Duration : 58 min 56 s
Bit rate mode : Constant
Bit rate : 192 kb/s
Channel(s) : 2 channels
Channel positions : Front: L R
Sampling rate : 48.0 kHz
Frame rate : 31.250 FPS (1536 SPF)
Bit depth : 16 bits
Compression mode : Lossy
Stream size : 80.9 MiB (10%)
Alignment : Split accross interleaves
Interleave, duration : 42 ms (1.00 video frame)
Interleave, preload duration : 500 ms
Service kind : Complete Main
Audio #2
ID : 2
Format : AC-3
Format/Info : Audio Coding 3
Codec ID : 2000
Duration : 58 min 56 s
Bit rate mode : Constant
Bit rate : 192 kb/s
Channel(s) : 2 channels
Channel positions : Front: L R
Sampling rate : 48.0 kHz
Frame rate : 31.250 FPS (1536 SPF)
Bit depth : 16 bits
Compression mode : Lossy
Stream size : 81.0 MiB (10%)
Alignment : Split accross interleaves
Interleave, duration : 42 ms (1.00 video frame)
Interleave, preload duration : 500 ms
Service kind : Complete Main

Внимание! Раздача ведётся путём добавления новых серий; при каждом добавлении создаётся новый торрент.
Чтобы начать докачку новой серии, пользователям необходимо сделать следующее:
1. Остановить скачивание;
2. Удалить старый торрент у себя из клиента (старые серии удалять не надо);
3. Скачать новый торрент и запустить его у себя в клиенте вместо старого, при этом указать клиенту путь в старую папку куда и должно происходить скачивание новых серий. Ваш клиент при этом должен произвести хеширование (проверку) старой папки и будет докачивать только те серии, которых у вас ещё нет. Старые серии при этом не удаляются, а продолжают раздаваться! Eсли вы уже удалили старые серии, то предотвратить повторную закачку старых серий можно, отжав галочку в соответствующих местах при запуске нового торрента.

pb.wtf



Скачать Хало через торрент https://i6.imageban.ru/out/2022/03/26/513b7bc478eb3989222970e8ee785560.png Скачать, смотреть онлайн Хало бесплантно в хорошем качестве Описание: В XXVI веке между земными силами Космического командования Объединённых наций и религиозным союзом нескольких инопланетных рас ... 10 10 6
Торрент: Зарегистрирован [2022-03-31 05:01] · скачан: 18 раз
Статус: √ проверено
Размер: 842 MB
Как cкачать? Как скачать Хало через торрент | UTorrent

% Раздел Тема Автор DL S | L
Сборники и Сиквелы (48-60 fps) [ 11.95 GB ] Хало / Halo / Сезон: 1 / Серии: 1-9 из 9 [2022 WEB-DLRip - HEVC 1080p 10 bit 60 FPS MVO] dd2d3 Скачать
3 | 0
Зарубежные сериалы [ 6.7 GB ] Хало / Halo / Сезон: 1 / Серии: 1-9 из 9 [2022 WEB-DLRip] MVO [AlexFilm] bober100 Скачать
3 | 1
Зарубежные сериалы [ 29.76 GB ] Хало / Halo / Сезон: 1 / Серии: 1-9 из 9 [2022 WEB-DL 1080p] MVO [AlexFilm] bober100 Скачать
3 | 2
Зарубежные сериалы [ 27.56 GB ] Хало / Halo / Сезон: 1 / Серии: 1-9 из 9 [2022 WEB-DL 1080p] MVO [NewComers] bober100 Скачать
1 | 1
Зарубежные сериалы [ 13.4 GB ] Хало / Halo / Сезон: 1 / Серии: 1-9 из 9 [2022 WEB-DL 720p] MVO [LostFilm] bober100 Скачать
8 | 1
T Зарубежные сериалы [ 5.09 GB ] Хало / Halo / Сезон: 1 / Серии: 1-9 из 9 [2022 WEBRip] MVO [ColdFilm] bober100 Скачать
1 | 4
Зарубежные сериалы [ 28.95 GB ] Хало / Halo / Сезон: 1 / Серия: 1-9 из 9 [2022 WEB-DL 1080p] 2 x MVO GEKADOL Скачать
5 | 3

28-11-2019 20:33  

Отключить всю рекламу на сайте

    Дорогой пользователь! Огромная просьба, поблагодарите релизера, оцените раздачу и оставьте свои комментарий, если Вы скачали Хало через торрент бесплатно!
    Комментировать посты могут только пользователи прошедшие не сложную регистрацию
    Показать сообщения:    

    Хало через торрент
    Скачать бесплатно Хало
    Хало скачать торрент
    Хало смотреть онлайн
    Cкачать фильм Хало бесплатно
    Хало скачать торрент в хорошем качестве
    Хало смотреть онлайн бесплатно в хорошем качестве


    Вы не можете начинать темы
    Вы не можете отвечать на сообщения
    Вы не можете редактировать свои сообщения
    Вы не можете удалять свои сообщения
    Вы не можете голосовать в опросах
    Вы не можете прикреплять файлы к сообщениям
    Вы можете скачивать файлы