Всегда рабочее зеркало без VPN и Proxy просто перед .vidak.icu напиши любое слово или цифру, Пример http://izcl.vidak.icu

MVO

2 сезон

2 сезон

1

1 сезон

iTunes

2 сезон

13

1 сезон

Deluxe

pack

Рекомендуем

Пиратка

30

ВАЖНО

RePack

MK11

RePack

jed

RePack

fifa19

RePack

RDR2

RePack

NEED FOR SPEED™ PAYBACK

Кинопоиск HD

6 сезон

 Острые козырьки 6 сезон

Все сериалы

все сериалы на PB.wtf

RePack

FAR CRY 5

Anonymous, нам критически не хватает 5601 руб. на оплату серверов и переферии за Апрель, помоги нам пожалуйста, вся надежда только на тебя. В благодарность мы отключим тебе всю рекламу на сайте!

×
  
Magnet ссылка

Ремонт малых двигателей / Ремонт малых двигателей (Джон Поллоно)(AMAZON) [2021 г., триллер, драма, комедия, WEB-DLRip, Дубляж "iTunes"] pb.wtf

Ремонт малых двигателей через торрент pb.wtf

Размер: 711 MB | Добавлен: 1 мес. 22 д. назад | Торрент скачан:20 раз
Смотреть онлайн Ремонт малых двигателей | Скачать    Ребята, помогите собрать деньги на оплату серверов!!!

27-03-2022 17:42 Ремонт малых двигателей Скачать торрент  

Ремонт малых двигателей / Small Engine Repair
Год выпуска: 2021
Страна: США / Canopy Media Partners, Story Factory SER, Tapestry Films
Жанр: триллер, драма, комедия
Продолжительность: 01:42:18
Перевод: Дубляж (iTunes)

Режиссер: Джон Поллоно

rating

В ролях: Джон Бернтал, Шей Уигэм, Джордана Спиро, Джон Поллоно, Сиэра Браво, Спенсер Хаус, Дженнифер Поллоно, Джошуа Битон, Майкл Ротон, Джош Хелман

Описание: Фрэнк, Суэйно и Пэки дружат всю жизнь, обожают "Ред Сокс", бары с дебоширами и юную дочку Фрэнка Кристал. Но когда Фрэнк собирает друзей на вечеринку, обильно приправленную виски, и просит об одолжении ради приболевшей всеми ими обожаемой девушки, события стремительно выходят из-под контроля.

Качество: WEB-DLRip
Формат: AVI
Видео кодек: DivX
Аудио кодек: MP3
Видео: 640x272 (2.35:1), 23.976 fps, DivX Codec 4.x ~833 kbps avg, 0.20 bit/pixel
Аудио: 48 kHz, MPEG Layer 3, 2 ch, ~128.00 kbps avg

Общее
Полное имя : G:\ФИЛЬМЫ\Ремонт малых двигателей.2021.D.WEB-DLRip(AMAZON).avi
Формат : AVI
Формат/Информация : Audio Video Interleave
Размер файла : 711 Мбайт
Продолжительность : 1 ч. 42 м.
Общий поток : 971 Кбит/сек
Программа кодирования : VirtualDubMod 1.5.10.3 | www.virtualdub-fr.org || (build 2550/release)
Библиотека кодирования : VirtualDubMod build 2550/release

Видео
Идентификатор : 0
Формат : MPEG-4 Visual
Профиль формата : Advanced Simple@L5
Настройки формата : BVOP2
Параметр BVOP формата : 2
Параметр QPel формата : Нет
Параметр GMC формата : Без точки перехода
Параметр матрицы формата : Default (MPEG)
Идентификатор кодека : DIVX
Идентификатор кодека/Информация : Project Mayo
Идентификатор кодека/Подсказка : DivX 4
Продолжительность : 1 ч. 42 м.
Битрейт : 834 Кбит/сек
Ширина : 640 пикселей
Высота : 272 пикселя
Соотношение сторон : 2,35:1
Частота кадров : 23,976 (24000/1001) кадра/сек
Цветовое пространство : YUV
Субдискретизация насыщенности : 4:2:0
Битовая глубина : 8 бит
Тип развёртки : Прогрессивная
Метод сжатия : С потерями
Бит/(Пиксели*Кадры) : 0.200
Размер потока : 610 Мбайт (86%)
Библиотека кодирования : XviD 1.2.1 (UTC 2008-12-04)

Аудио
Идентификатор : 1
Формат : MPEG Audio
Версия формата : Version 1
Профиль формата : Layer 3
Настройки формата : Joint stereo
Идентификатор кодека : 55
Идентификатор кодека/Подсказка : MP3
Продолжительность : 1 ч. 42 м.
Вид битрейта : Постоянный
Битрейт : 128 Кбит/сек
Каналы : 2 канала
Частота : 48,0 КГц
Частота кадров : 41,667 кадра/сек (1152 SPF)
Метод сжатия : С потерями
Размер потока : 93,7 Мбайт (13%)
Выравнивание : Соединение по промежуткам
Продолжительность промежутка : 42 мс. (1,00 видеокадр)
Время предзагрузки промежутка : 504 мс.
Библиотека кодирования : LAME3.99r
Настройки программы : -m j -V 4 -q 2 -lowpass 17 -b 128

Report created by : MediaInfoLib - v21.09
Report created on : UTC 2022-03-27 17:22:27

pb.wtf



Скачать Ремонт малых двигателей через торрент https://i116.fastpic.org/big/2022/0327/62/49b16a9f26cba9b150a6c8c1f8fa3e62.jpg Скачать, смотреть онлайн Ремонт малых двигателей бесплантно в хорошем качестве Описание: Фрэнк, Суэйно и Пэки дружат всю жизнь, обожают "Ред Сокс", бары с дебоширами и юную дочку Фрэнка Кристал. Но когда Фрэнк собирает ... 10 10 1
Торрент: Зарегистрирован [2022-03-27 17:42] · скачан: 20 раз
Статус: √ проверено
Размер: 711 MB
Как cкачать? Как скачать Ремонт малых двигателей через торрент | UTorrent

% Раздел Тема Автор DL S | L
Фильмы 2021 [DVDrip, WEB-DLRip, HDrip] (DUB, MVO) [ 1.92 GB ] Ремонт малых двигателей / Small Engine Repair [2022 WEB-DLRip-AVC] от ExKinoRay Lithuania Скачать
4 | 0
Фильмы (WEB-DL 720p, 1080p) [ 6.71 GB ] Ремонт малых двигателей / Small Engine Repair [2021 WEB-DL 1080p] bober100 Скачать
4 | 0

28-11-2019 20:33  

Отключить всю рекламу на сайте

    Дорогой пользователь! Огромная просьба, поблагодарите релизера, оцените раздачу и оставьте свои комментарий, если Вы скачали Ремонт малых двигателей через торрент бесплатно!
    Комментировать посты могут только пользователи прошедшие не сложную регистрацию
    Показать сообщения:    

    Ремонт малых двигателей через торрент
    Скачать бесплатно Ремонт малых двигателей
    Ремонт малых двигателей скачать торрент
    Ремонт малых двигателей смотреть онлайн
    Cкачать фильм Ремонт малых двигателей бесплатно
    Ремонт малых двигателей скачать торрент в хорошем качестве
    Ремонт малых двигателей смотреть онлайн бесплатно в хорошем качестве


    Вы не можете начинать темы
    Вы не можете отвечать на сообщения
    Вы не можете редактировать свои сообщения
    Вы не можете удалять свои сообщения
    Вы не можете голосовать в опросах
    Вы не можете прикреплять файлы к сообщениям
    Вы можете скачивать файлы