Доктор Стрэндж

Лицензия

Добыча

Дубляж

Уэнсдэй

1 сезон

Тор

Дубляж

В эфире

Дубляж

Там, где раки поют

MVO

Властелин колец

1 сезон

Deluxe

pack

Рекомендуем

30

Пиратка

ВАЖНО

ВАЖНО

Ghostwire

Пиратка

jed

RePack

nioh2

RePack

RDR2

RePack

NEED FOR SPEED™ PAYBACK

RePack

скачать торрент

Кинопоиск HD

Острые козырьки 6 сезон

6 сезон

FAR CRY 6

RePack

скачать торрент

Лицензия

скачать торрент

MVO

1

1 сезон

скачать торрент

1 сезон

скачать торрент

Лицензия

  

Аллея кошмаров / Nightmare Alley (Гильермо дель Торо) [2021, Триллер, драма, криминал, UHD BDRemux 2160p] Дубляж [Невафильм] +2xMVO [HDRezka, Jaskier] +AVO [М. Чадов]

Аллея кошмаров через торрент pb.wtf

Размер: 56.8 GB | Добавлен: 5 мес. 26 д. назад | Торрент скачан:63 раза
Смотреть онлайн | Скачать   

28-03-2022 11:12 Аллея кошмаров Скачать торрент  

Аллея кошмаров
Nightmare Alley

Год выпуска: 2021
Страна: США, Мексика
Студия: Double Dare You (DDY), Fox Searchlight Pictures, Searchlight Pictures, TSG Entertainment
Жанр: Триллер, драма, криминал
Продолжительность: 02:30:06
Перевод:
#1: Дублированный | Невафильм
#2: Профессиональный (многоголосый) | HDRezka
#3: Профессиональный многоголосый | Jaskier
#4: Авторский | М. Чадов
Субтитры: Русские (Forced, full), английские

Режиссер: Гильермо дель Торо

rating

В ролях: Брэдли Купер, Тони Коллетт, Руни Мара, Кейт Бланшетт, Уиллем Дефо, Рон Перлман, Холт МакКаллани, Дэвид Стратэйрн, Джим Бивер, Мэри Стинберген, Марк Повинелли, Пол Андерсон, Тим Блэйк Нельсон, Ромина Пауэр, Клифтон Коллинз-мл., Дэвид Хьюлетт, Лара Джин Хоростецки, Линден Порко, Дрю Нельсон, Питер МакНилл, Сара Меннелл, Ричард Дженкинс

Описание: Ремейк нуарной «Аллеи кошмаров» 1947 года, герой которого — «ясновидящий», зарабатывающий на наивности публики. Однажды он знакомится с красивой женщиной, которая работает психоаналитиком. Вместе они создают непревзойденный тандем мошенников, однако вскоре удача изменяет им.

Качество: UHD BDRemux 2160p
Формат: MKV

Видео: 3840x2160 at 23.976 fps, MPEG-H HEVC HDR Video ~ 46400 kbps avg
Аудио #01: 48 kHz, AC3, 5.1, 384 Kbps | Дублированный | Невафильм | RUS |
Аудио #02: 48 kHz, AC3, 5.1, 448 Kbps | Профессиональный многоголосый | HDRezka | RUS |
Аудио #03: 48 kHz, AC3, 5.1, 448 Kbps | Профессиональный многоголосый | Jaskier | RUS |
Аудио #04: 48 kHz, AC3, 5.1, 640 Kbps | Авторский | М. Чадов (cens.) | RUS |
Аудио #05: 48 kHz, AC3, 5.1, 640 Kbps | Авторский | М. Чадов (uncens.) | RUS |
Аудио #06: 48 kHz, DTS-HD MA, 5.1, 4519 Kbps | Оригинал | ENG |

Аудио #07: 48 kHz, AC3, 5.1, 640 Kbps | Оригинал | ENG |
скриншот  скриншот  скриншот  скриншот  скриншот  

General
Unique ID : 69493454165411038281621803259604312391 (0x3447F3D28ECA748B79BB351974692147)
Complete name : E:Video1Nightmare.Alley.2021.BDREMUX.2160p.HDR.seleZen.mkv
Format : Matroska
Format version : Version 4
File size : 56.8 GiB
Duration : 2 h 30 min
Overall bit rate mode : Variable
Overall bit rate : 54.1 Mb/s
Movie name : Nightmare Alley 2021 from seleZen
Encoded date : UTC 2022-06-09 10:42:48
Writing application : mkvmerge v59.0.0 ('Shining Star') 64-bit
Writing library : libebml v1.4.2 + libmatroska v1.6.4

Video
ID : 1
Format : HEVC
Format/Info : High Efficiency Video Coding
Format profile : Main [email protected]@High
HDR format : SMPTE ST 2086, HDR10 compatible
Codec ID : V_MPEGH/ISO/HEVC
Duration : 2 h 30 min
Bit rate : 46.4 Mb/s
Width : 3 840 pixels
Height : 2 160 pixels
Display aspect ratio : 16:9
Frame rate mode : Constant
Frame rate : 23.976 (24000/1001) FPS
Color space : YUV
Chroma subsampling : 4:2:0 (Type 2)
Bit depth : 10 bits
Bits/(Pixel*Frame) : 0.233
Stream size : 48.6 GiB (86%)
Language : English
Default : Yes
Forced : No
Color range : Limited
Color primaries : BT.2020
Transfer characteristics : PQ
Matrix coefficients : BT.2020 non-constant
Mastering display color pri: Display P3
Mastering display luminance: min: 0.0050 cd/m2, max: 1000 cd/m2

Audio #1
ID : 2
Format : AC-3
Format/Info : Audio Coding 3
Commercial name : Dolby Digital
Codec ID : A_AC3
Duration : 2 h 30 min
Bit rate mode : Constant
Bit rate : 384 kb/s
Channel(s) : 6 channels
Channel layout : L R C LFE Ls Rs
Sampling rate : 48.0 kHz
Frame rate : 31.250 FPS (1536 SPF)
Compression mode : Lossy
Stream size : 413 MiB (1%)
Title : Дубляж
Language : Russian
Service kind : Complete Main
Default : Yes
Forced : Yes

Audio #2
ID : 3
Format : AC-3
Format/Info : Audio Coding 3
Commercial name : Dolby Digital
Codec ID : A_AC3
Duration : 2 h 30 min
Bit rate mode : Constant
Bit rate : 448 kb/s
Channel(s) : 6 channels
Channel layout : L R C LFE Ls Rs
Sampling rate : 48.0 kHz
Frame rate : 31.250 FPS (1536 SPF)
Compression mode : Lossy
Stream size : 481 MiB (1%)
Title : MVO [HDRezka]
Language : Russian
Service kind : Complete Main
Default : No
Forced : No

Audio #3
ID : 4
Format : AC-3
Format/Info : Audio Coding 3
Commercial name : Dolby Digital
Codec ID : A_AC3
Duration : 2 h 30 min
Bit rate mode : Constant
Bit rate : 448 kb/s
Channel(s) : 6 channels
Channel layout : L R C LFE Ls Rs
Sampling rate : 48.0 kHz
Frame rate : 31.250 FPS (1536 SPF)
Compression mode : Lossy
Stream size : 481 MiB (1%)
Title : MVO [Jaskier]
Language : Russian
Service kind : Complete Main
Default : No
Forced : No

Audio #4
ID : 5
Format : AC-3
Format/Info : Audio Coding 3
Commercial name : Dolby Digital
Codec ID : A_AC3
Duration : 2 h 30 min
Bit rate mode : Constant
Bit rate : 640 kb/s
Channel(s) : 6 channels
Channel layout : L R C LFE Ls Rs
Sampling rate : 48.0 kHz
Frame rate : 31.250 FPS (1536 SPF)
Bit depth : 16 bits
Compression mode : Lossy
Stream size : 687 MiB (1%)
Title : AVO [Chadov] - cens.
Language : Russian
Service kind : Complete Main
Default : No
Forced : No

Audio #5
ID : 6
Format : AC-3
Format/Info : Audio Coding 3
Commercial name : Dolby Digital
Codec ID : A_AC3
Duration : 2 h 30 min
Bit rate mode : Constant
Bit rate : 640 kb/s
Channel(s) : 6 channels
Channel layout : L R C LFE Ls Rs
Sampling rate : 48.0 kHz
Frame rate : 31.250 FPS (1536 SPF)
Bit depth : 16 bits
Compression mode : Lossy
Stream size : 687 MiB (1%)
Title : AVO [Chadov] - uncens.
Language : Russian
Service kind : Complete Main
Default : No
Forced : No

Audio #6
ID : 7
Format : MLP FBA 16-ch
Format/Info : Meridian Lossless Packing FBA with 16-channel presentation
Commercial name : Dolby TrueHD with Dolby Atmos
Codec ID : A_TRUEHD
Duration : 2 h 30 min
Bit rate mode : Variable
Bit rate : 4 519 kb/s
Maximum bit rate : 7 362 kb/s
Channel(s) : 8 channels
Channel layout : L R C LFE Ls Rs Lb Rb
Sampling rate : 48.0 kHz
Frame rate : 1 200.000 FPS (40 SPF)
Compression mode : Lossless
Stream size : 4.74 GiB (8%)
Title : Original
Language : English
Default : No
Forced : No
Number of dynamic objects : 13
Bed channel count : 1 channel
Bed channel configuration : LFE

Audio #7
ID : 8
Format : AC-3
Format/Info : Audio Coding 3
Commercial name : Dolby Digital
Codec ID : A_AC3
Duration : 2 h 30 min
Bit rate mode : Constant
Bit rate : 640 kb/s
Channel(s) : 6 channels
Channel layout : L R C LFE Ls Rs
Sampling rate : 48.0 kHz
Frame rate : 31.250 FPS (1536 SPF)
Compression mode : Lossy
Stream size : 687 MiB (1%)
Language : English
Service kind : Complete Main
Default : No
Forced : No

Text #1
ID : 9
Format : UTF-8
Codec ID : S_TEXT/UTF8
Codec ID/Info : UTF-8 Plain Text
Duration : 2 h 7 min
Bit rate : 0 b/s
Count of elements : 9
Stream size : 338 Bytes (0%)
Title : Forced [HDRezka]
Language : Russian
Default : Yes
Forced : Yes

Text #2
ID : 10
Format : UTF-8
Codec ID : S_TEXT/UTF8
Codec ID/Info : UTF-8 Plain Text
Duration : 2 h 19 min
Bit rate : 88 b/s
Count of elements : 1913
Stream size : 90.3 KiB (0%)
Title : Full [FOCS]
Language : Russian
Default : No
Forced : No

Text #3
ID : 11
Format : UTF-8
Codec ID : S_TEXT/UTF8
Codec ID/Info : UTF-8 Plain Text
Duration : 2 h 19 min
Bit rate : 54 b/s
Count of elements : 1916
Stream size : 55.3 KiB (0%)
Title : Full
Language : English
Default : No
Forced : No

Menu
00:00:00.000 : Глава 01
00:06:01.611 : Глава 02
00:08:32.387 : Глава 03
00:14:11.392 : Глава 04
00:18:53.507 : Глава 05
00:22:54.748 : Глава 06
00:29:34.231 : Глава 07
00:34:22.269 : Глава 08
00:41:27.318 : Глава 09
00:50:50.089 : Глава 10
01:00:07.395 : Глава 11
01:10:43.156 : Глава 12
01:18:20.362 : Глава 13
01:27:15.856 : Глава 14
01:38:15.473 : Глава 15
01:47:08.589 : Глава 16
01:52:52.933 : Глава 17
01:58:58.757 : Глава 18
02:05:42.618 : Глава 19
02:14:06.789 : Глава 20
02:20:56.990 : Глава 21




Скачать Аллея кошмаров через торрент https://i120.fastpic.org/big/2022/0609/eb/1937178cde152c5f1a301cc0f0d4abeb.jpg Скачать, смотреть онлайн Аллея кошмаров бесплантно в хорошем качестве Описание: Ремейк нуарной «Аллеи кошмаров» 1947 года, герой которого — «ясновидящий», зарабатывающий на наивности публики. Однажды он ... 8.9 10 8
Info! Золотая раздача, скачанное не засчитывается.
Торрент: Зарегистрирован [2022-06-09 16:20] · скачан: 63 раз
Статус: √ проверено
Размер: 56.8 GB
Как cкачать? Как скачать Аллея кошмаров через торрент | UTorrent

% Раздел Тема Автор DL S | L
Фильмы (HD 720p, 1080p) (48-60 fps) [ 7.86 GB ] Аллея кошмаров / Nightmare Alley | Дубляж | 720p / 60 FPS slaventi-69 Скачать
6 | 0
Фильмы 2021 [DVDrip, WEB-DLRip, HDrip] (DUB, MVO) [ 2.12 GB ] Аллея кошмаров / Nightmare Alley | DUB | BDRip bober100 Скачать
2 | 0
Фильмы 2021 [DVDrip, WEB-DLRip, HDrip] (DUB, MVO) [ 1.46 GB ] Аллея кошмаров / Nightmare Alley | DUB | BDRip bober100 Скачать
4 | 0
Фильмы [HD 720p, 1080p] (Хороший звук DUB, MVO) [ 5.5 GB ] Аллея кошмаров / Nightmare Alley | IVI | 720p bober100 Скачать
1 | 0
Фильмы (Blu-ray, BD-Remux, HDDVD) [ 38.44 GB ] Аллея кошмаров / Nightmare Alley | Jaskier | BD Remux 1080p bober100 Скачать
1 | 0
Фильмы [HD 720p, 1080p] (Хороший звук DUB, MVO) [ 16.07 GB ] Аллея кошмаров / Nightmare Alley | Jaskier | 1080p bober100 Скачать
5 | 0
Фильмы 2021 [DVDrip, WEB-DLRip, HDrip] (DUB, MVO) [ 2.18 GB ] Аллея кошмаров / Nightmare Alley | HDRezka Studio | DLRip bober100 Скачать
3 | 0

28-11-2019 20:33  


Отключить вcю реклaмy на сайте, в т.ч. и в плеере онлайн просмотра!

    Дорогой пользователь! Огромная просьба, поблагодарите релизера, оцените раздачу и оставьте свои комментарий, если Вы скачали Аллея кошмаров через торрент бесплатно!!
    Комментировать посты могут только пользователи прошедшие не сложную регистрацию
    Показать сообщения:    


    Аллея кошмаров через торрент
    Скачать бесплатно Аллея кошмаров
    Аллея кошмаров скачать торрент
    Аллея кошмаров смотреть онлайн
    Cкачать фильм Аллея кошмаров бесплатно
    Аллея кошмаров скачать торрент в хорошем качестве
    Аллея кошмаров смотреть онлайн бесплатно в хорошем качестве
    Вы не можете начинать темы
    Вы не можете отвечать на сообщения
    Вы не можете редактировать свои сообщения
    Вы не можете удалять свои сообщения
    Вы не можете голосовать в опросах
    Вы не можете прикреплять файлы к сообщениям
    Вы можете скачивать файлы
    Аллея кошмаров / Nightmare Alley [2021, Триллер, драма, криминал, UHD BDRemux 2160p] Дубляж [Невафильм] +2xMVO [HDRezka, Jaskier] +AVO [М. Чадов] смотреть онлайн, скачать торрент picoco.icu