Достать ножи: Стеклянная луковица

MVO

Добыча

Дубляж

Уэнсдэй

1 сезон

Тор

Дубляж

13 клиническая

1 сезон

Жестокая ночь

MVO

Одни из нас

1 сезон

Deluxe

pack

Рекомендуем

30

Пиратка

ВАЖНО

ВАЖНО

Ghostwire

Пиратка

jed

RePack

nioh2

RePack

RDR2

RePack

NEED FOR SPEED™ PAYBACK

RePack

скачать торрент

Кинопоиск HD

Острые козырьки 6 сезон

6 сезон

FAR CRY 6

RePack

скачать торрент

Лицензия

скачать торрент

MVO

1

1 сезон

скачать торрент

1 сезон

скачать торрент

Лицензия

  

Матрица: Квадрология / The Matrix: Quadrilogy [1999-2021, Боевик, фантастика, приключения, BDRip - HEVC 1080p 10 bit 60 FPS, Дубляж]

Матрица: Квадрология через торрент pb.wtf

Размер: 18.08 GB | Добавлен: 10 мес. назад | Торрент скачан:51 раз
| Скачать | Поддержите нас   

29-03-2022 17:52 Матрица: Квадрология Скачать торрент  

The Matrix: Quadrilogy



The Matrix
«Добро пожаловать в реальный мир»

Год выпуска: 1999
Страна: США, Австралия
Жанр: фантастика, боевик, приключения
Продолжительность: 02:16:41
Перевод: Дублированный |
Субтитры: русские
Режиссер: Энди Вачовски, Лана Вачовски
В ролях: Киану Ривз, Лоренс Фишбёрн, Кэрри-Энн Мосс, Хьюго Уивинг, Джо Пантольяно, Глория Фостер, Маркус Чонг, Джулиан Араханга, Мэтт Доран, Белинда МакКлори
Описание: Жизнь Томаса Андерсона разделена на две части: днём он — самый обычный офисный работник, получающий нагоняи от начальства, а ночью превращается в хакера по имени Нео, и нет места в сети, куда он бы не смог проникнуть. Но однажды всё меняется. Томас узнаёт ужасающую правду о реальности.
Мировая премьера: 24 марта 1999

Качество: WEB-DLRip 1080p Rip by DD2D3
Формат: MKV
Видео: V_MPEGH/ISO/HEVC; 1920x1080 (16:9); 3600 Kbps; 59,940 fps; 0,029 bpp
Аудио: русский; DTS; 1509 Kbps; CBR; 6 ch; 16 bit ||
Навигация по главам: нет
Доп. инфо: Open Matte


Общее
Уникальный идентификатор : 200004149066077968842376156900698689786 (0x967765E148996EA696073CF826DD10FA)
Полное имя : E:\The Matrix Quadrilogy (1999 - 2021) BDRip - HEVC 1080p 10 bit 60 FPS\The Matrix (1999) [Open Matte] WEB-DLRip HEVC 1080p 10 bit 60 FPS.mkv
Формат : Matroska
Версия формата : Version 2
Размер файла : 4,98 Гбайт
Продолжительность : 2 ч. 16 м.
Общий поток : 5 213 Кбит/сек
Название фильма : Rip by from DD2D3
Дата кодирования : UTC 2022-03-29 15:55:35
Программа кодирования : mkvmerge v6.9.1 ('Blue Panther') 32bit built on Apr 18 2014 18:15:44
Библиотека кодирования : libebml v1.3.0 + libmatroska v1.4.1
Attachments : poster

Видео
Идентификатор : 1
Формат : HEVC
Формат/Информация : High Efficiency Video Coding
Профиль формата : Main [email protected]@Main
Идентификатор кодека : V_MPEGH/ISO/HEVC
Продолжительность : 2 ч. 16 м.
Битрейт : 3 600 Кбит/сек
Ширина : 1 920 пикселей
Высота : 1 080 пикселей
Соотношение сторон : 16:9
Режим частоты кадров : Постоянный
Частота кадров : 59,940 (60000/1001) кадров/сек
Цветовое пространство : YUV
Субдискретизация насыщенности : 4:2:0
Битовая глубина : 10 бит
Бит/(Пиксели*Кадры) : 0.029
Размер потока : 3,44 Гбайт (69%)
Default : Да
Forced : Нет
Цветовой диапазон : Limited
Основные цвета : BT.709
Характеристики трансфера : BT.709
Коэффициенты матрицы : BT.709

Аудио
Идентификатор : 2
Формат : DTS
Формат/Информация : Digital Theater Systems
Идентификатор кодека : A_DTS
Продолжительность : 2 ч. 16 м.
Вид битрейта : Постоянный
Битрейт : 1 509 Кбит/сек
Каналы : 6 каналов
Channel layout : C L R Ls Rs LFE
Частота : 48,0 КГц
Частота кадров : 93,750 кадра/сек (512 SPF)
Битовая глубина : 16 бит
Метод сжатия : С потерями
Размер потока : 1,44 Гбайт (29%)
Заголовок : Дубляж, Blu-Ray CEE
Язык : Russian
Default : Да
Forced : Нет
Statistics Tags Issue : mkvmerge v11.0.0 ('Alive') 64bit 2017-04-23 13:03:08 / mkvmerge v6.9.1 ('Blue Panther') 32bit built on Apr 18 2014 18:15:44 2022-03-29 15:55:35
FromStats_BitRate : 1509000
FromStats_Duration : 02:16:15.680000000
FromStats_FrameCount : 766470
FromStats_StreamSize : 1542137640

Текст
Идентификатор : 3
Формат : UTF-8
Идентификатор кодека : S_TEXT/UTF8
Идентификатор кодека/Информация : UTF-8 Plain Text
Заголовок : Full
Язык : Russian
Default : Да
Forced : Нет
Statistics Tags Issue : mkvmerge v11.0.0 ('Alive') 64bit 2017-04-23 13:03:08 / mkvmerge v6.9.1 ('Blue Panther') 32bit built on Apr 18 2014 18:15:44 2022-03-29 15:55:35
FromStats_BitRate : 66
FromStats_Duration : 02:08:03.846000000
FromStats_FrameCount : 1356
FromStats_StreamSize : 63980

© Оформление by DD2D3


The Matrix Reloaded
«Одни машины помогают нам жить, другие – пытаются нас убить»

Год выпуска: 2003
Страна: США, Австралия
Жанр: фантастика, боевик, приключения

Продолжительность: 02:18:14
Перевод: Дублированный |
Субтитры: русские |

Режиссер: Энди Вачовски, Лана Вачовски
В ролях: Киану Ривз, Хьюго Уивинг, Кэрри-Энн Мосс, Лоренс Фишбёрн, Хэролд Перрино, Джада Пинкетт Смит, Моника Беллуччи, Глория Фостер, Джина Торрес, Нэтаниэл Лис
Описание: Борцы за свободу Нео, Тринити и Морфеус продолжают руководить восстанием людей против армии машин. Они вынуждены использовать не только арсенал превосходного оружия, но и свои выдающиеся навыки. Участие в миссии по спасению человеческой расы от истребления приносит им более глубокое понимание Матрицы и осознание центральной роли Нео в судьбе человечества.
Мировая премьера: 7 мая 2003


Качество: WEB-DLRip 1080p Rip by DD2D3
Формат: MKV
Видео: V_MPEGH/ISO/HEVC; 1920x1080 (16:9); 3572 Kbps; 59,940 fps; 0,029 bpp
Аудио: русский; DTS; 1509 Kbps; CBR; 6 ch; 16 bit ||
Навигация по главам: есть
Доп. инфо: Open Matte


Общее
Уникальный идентификатор : 247144315063956146704061496448144618873 (0xB9EE4381A011B5E2A1054745F8DBB579)
Полное имя : E:\The Matrix Quadrilogy (1999 - 2021) BDRip - HEVC 1080p 10 bit 60 FPS\The Matrix Reloaded (2003) [Open Matte] WEB-DLRip HEVC 1080p 10 bit 60 FPS.mkv
Формат : Matroska
Версия формата : Version 2
Размер файла : 5,01 Гбайт
Продолжительность : 2 ч. 18 м.
Общий поток : 5 184 Кбит/сек
Название фильма : Rip by from DD2D3
Дата кодирования : UTC 2022-03-27 06:02:24
Программа кодирования : mkvmerge v6.9.1 ('Blue Panther') 32bit built on Apr 18 2014 18:15:44
Библиотека кодирования : libebml v1.3.0 + libmatroska v1.4.1
Attachments : poster

Видео
Идентификатор : 1
Формат : HEVC
Формат/Информация : High Efficiency Video Coding
Профиль формата : Main [email protected]@Main
Идентификатор кодека : V_MPEGH/ISO/HEVC
Продолжительность : 2 ч. 18 м.
Битрейт : 3 572 Кбит/сек
Ширина : 1 920 пикселей
Высота : 1 080 пикселей
Соотношение сторон : 16:9
Режим частоты кадров : Постоянный
Частота кадров : 59,940 (60000/1001) кадров/сек
Цветовое пространство : YUV
Субдискретизация насыщенности : 4:2:0
Битовая глубина : 10 бит
Бит/(Пиксели*Кадры) : 0.029
Размер потока : 3,45 Гбайт (69%)
Default : Да
Forced : Нет
Цветовой диапазон : Limited
Основные цвета : BT.709
Характеристики трансфера : BT.709
Коэффициенты матрицы : BT.709

Аудио
Идентификатор : 2
Формат : DTS
Формат/Информация : Digital Theater Systems
Идентификатор кодека : A_DTS
Продолжительность : 2 ч. 18 м.
Вид битрейта : Постоянный
Битрейт : 1 509 Кбит/сек
Каналы : 6 каналов
Channel layout : C L R Ls Rs LFE
Частота : 48,0 КГц
Частота кадров : 93,750 кадра/сек (512 SPF)
Битовая глубина : 16 бит
Метод сжатия : С потерями
Размер потока : 1,46 Гбайт (29%)
Заголовок : Дубляж, Blu-ray CEE
Язык : Russian
Default : Да
Forced : Нет
Statistics Tags Issue : mkvmerge v11.0.0 ('Alive') 64bit 2017-04-23 16:05:37 / mkvmerge v6.9.1 ('Blue Panther') 32bit built on Apr 18 2014 18:15:44 2022-03-27 06:02:24
FromStats_BitRate : 1508999
FromStats_Duration : 02:18:14.102000000
FromStats_FrameCount : 777572
FromStats_StreamSize : 1564474864

Текст
Идентификатор : 3
Формат : UTF-8
Идентификатор кодека : S_TEXT/UTF8
Идентификатор кодека/Информация : UTF-8 Plain Text
Язык : Russian
Default : Нет
Forced : Нет
Statistics Tags Issue : mkvmerge v11.0.0 ('Alive') 64bit 2017-04-23 16:05:37 / mkvmerge v6.9.1 ('Blue Panther') 32bit built on Apr 18 2014 18:15:44 2022-03-27 06:02:24
FromStats_BitRate : 67
FromStats_Duration : 02:17:35.631000000
FromStats_FrameCount : 1186
FromStats_StreamSize : 69192

Меню
00:00:00.000 : en:Trinity's In
00:03:50.230 : en:Trust Me
00:08:55.368 : en:Upgrades
00:12:16.903 : en:Zion
00:16:24.317 : en:Matter of Time
00:19:43.182 : en:Homecomings
00:23:29.408 : en:We Are Still Here
00:27:26.812 : en:Celebrating Humanity
00:32:01.253 : en:Smith Will Suffice
00:33:43.188 : en:What Is Control?
00:37:57.442 : en:Summoned
00:40:55.620 : en:Seraph
00:43:44.956 : en:The Oracle
00:50:42.706 : en:Swarm of Smiths
00:55:08.472 : en:Sticking It to Them
01:00:03.099 : en:The Volunteer
01:02:49.766 : en:Taste of Merovingian
01:08:52.295 : en:Persephone's Kiss
01:13:06.882 : en:Unlocking the Keymaker
01:16:21.410 : en:Blade Leapers
01:20:31.827 : en:Twin Trouble
01:22:47.129 : en:Freeway Entrance
01:26:12.501 : en:Cross-Vehicular Traffic
01:29:52.887 : en:Biker Girl
01:32:50.899 : en:Trucks Amuck
01:37:10.825 : en:The Reason We're Here
01:40:51.379 : en:Sacrifice and Sabotage
01:44:57.791 : en:So Many of Me
01:48:12.152 : en:The Architect
01:52:25.572 : en:The One's Function
01:55:42.936 : en:Neo's Choice
01:57:37.550 : en:Not Letting Go
02:01:51.471 : en:Bomb's Target
02:04:18.451 : en:Feeling the Enemy
02:07:04.116 : en:End Credits (Calm Like a Bomb, Reload, Sleeping Awake, Session, When the World Ends (Oakenfold Remix))
02:16:29.681 : en:The Matrix Revolutions Trailer



The Matrix Revolutions
«Все, что имеет начало, имеет и конец»

Год выпуска: 2003
Страна: США
Жанр: фантастика, боевик, приключения
Продолжительность: 02:09:12
Перевод: Дублированный |
Субтитры: русские
Режиссер: Лилли Вачовски, Лана Вачовски
В ролях: Лоуренс Фишборн, Киану Ривз, Хьюго Уивинг, Брюс Спенс, Моника Белуччи, Джада Пинкетт Смит, Натаниэль Лис, Ламбер Уилсон, Харольд Перрино-мл., Джина Торрес, Энтони Зерб, Кэрри-Энн Мосс, Хэрри Дж. Ленникс, Роберт Маммон, Клэйтон Уотсон, Эсси Дэвис, Энтони Вонг, Дэвид Робертс, Иэн Блисс, Мэри Элис, Робин Невин, Руперт Рид, Хельмут Бакайтис
Описание: Пока армия машин пытается уничтожить Зион, его жители из последних сил держат оборону.
Мировая премьера: 27 октября 2003

Качество: WEB-DLRip 1080p Rip by DD2D3
Формат: MKV
Видео: V_MPEGH/ISO/HEVC; 1920x1080 (16:9); 3605 Kbps; 59,940 fps; 0,029 bpp
Аудио: русский; DTS; 1509 Kbps; CBR; 6 ch; 16 bit ||
Навигация по главам: есть
Доп. инфо: Open Matte


Общее
Уникальный идентификатор : 215879029471376064956761750424459337267 (0xA268C9E9B65DF7B5A02A0EB8F2D6DE33)
Полное имя : E:\The Matrix Quadrilogy (1999 - 2021) BDRip - HEVC 1080p 10 bit 60 FPS\The Matrix Revolutions (2003) [Open Matte] WEB-DLRip HEVC 1080p 10 bit 60 FPS.mkv
Формат : Matroska
Версия формата : Version 2
Размер файла : 4,71 Гбайт
Продолжительность : 2 ч. 9 м.
Общий поток : 5 218 Кбит/сек
Название фильма : Rip by from DD2D3
Дата кодирования : UTC 2022-03-26 07:55:00
Программа кодирования : mkvmerge v6.9.1 ('Blue Panther') 32bit built on Apr 18 2014 18:15:44
Библиотека кодирования : libebml v1.3.0 + libmatroska v1.4.1
Attachments : poster

Видео
Идентификатор : 1
Формат : HEVC
Формат/Информация : High Efficiency Video Coding
Профиль формата : Main [email protected]@Main
Идентификатор кодека : V_MPEGH/ISO/HEVC
Продолжительность : 2 ч. 9 м.
Битрейт : 3 606 Кбит/сек
Ширина : 1 920 пикселей
Высота : 1 080 пикселей
Соотношение сторон : 16:9
Режим частоты кадров : Постоянный
Частота кадров : 59,940 (60000/1001) кадров/сек
Цветовое пространство : YUV
Субдискретизация насыщенности : 4:2:0
Битовая глубина : 10 бит
Бит/(Пиксели*Кадры) : 0.029
Размер потока : 3,25 Гбайт (69%)
Default : Да
Forced : Нет
Цветовой диапазон : Limited
Основные цвета : BT.709
Характеристики трансфера : BT.709
Коэффициенты матрицы : BT.709

Аудио
Идентификатор : 2
Формат : DTS
Формат/Информация : Digital Theater Systems
Идентификатор кодека : A_DTS
Продолжительность : 2 ч. 9 м.
Вид битрейта : Постоянный
Битрейт : 1 509 Кбит/сек
Каналы : 6 каналов
Channel layout : C L R Ls Rs LFE
Частота : 48,0 КГц
Частота кадров : 93,750 кадра/сек (512 SPF)
Битовая глубина : 16 бит
Метод сжатия : С потерями
Размер потока : 1,36 Гбайт (29%)
Заголовок : Дубляж, Blu-Ray CEE
Язык : Russian
Default : Да
Forced : Нет
Statistics Tags Issue : mkvmerge v11.0.0 ('Alive') 64bit 2017-04-23 18:31:58 / mkvmerge v6.9.1 ('Blue Panther') 32bit built on Apr 18 2014 18:15:44 2022-03-26 07:55:00
FromStats_BitRate : 1508999
FromStats_Duration : 02:09:12.598000000
FromStats_FrameCount : 726806
FromStats_StreamSize : 1462333672

Текст
Идентификатор : 3
Формат : UTF-8
Идентификатор кодека : S_TEXT/UTF8
Идентификатор кодека/Информация : UTF-8 Plain Text
Язык : Russian
Default : Да
Forced : Нет
Statistics Tags Issue : mkvmerge v11.0.0 ('Alive') 64bit 2017-04-23 18:31:58 / mkvmerge v6.9.1 ('Blue Panther') 32bit built on Apr 18 2014 18:15:44 2022-03-26 07:55:00
FromStats_BitRate : 60
FromStats_Duration : 02:08:35.341000000
FromStats_FrameCount : 1085
FromStats_StreamSize : 58220


The Matrix Resurrections
«Выбор за тобой»

Год выпуска: 2021
Страна: США
Жанр: фантастика, боевик, приключения

Продолжительность: 02:27:57
Перевод: Дублированный |
Субтитры: русские |

Режиссер: Лана Вачовски
В ролях: Киану Ривз, Кэрри-Энн Мосс, Кристина Риччи, Джессика Хенвик, Дэниэл Бернхард, Джонатан Грофф, Приянка Чопра Джонас, Яхья Абдул-Матин II, Эллен Холлман, Джада Пинкетт Смит
Описание: Геймдизайнер Томас Андерсон сделал себе имя работой над трилогией игр «Матрица». Хотя окружающий мир периодически даёт сбои и обнажает свою истинную сущность, бывший Нео исправно посещает психотерапевта, принимает пилюли и практически убедил себя, что всё это — игра его воображения. Но однажды на него выходит хакерша Багз и предлагает снова следовать за белым кроликом.
Мировая премьера: 16 декабря 2021

Качество: BDRip 1080p Rip by DD2D3
Формат: MKV
Видео: V_MPEGH/ISO/HEVC; 1920x808 (2.40:1); 2761 Kbps; 59,940 fps; 0,030 bpp
Аудио: русский; AC3+; 448 Kbps; CBR; 6 ch ||
Навигация по главам: есть
Доп. информация: нет


Общее
Уникальный идентификатор : 220673763076832331942526961245262426577 (0xA6043887FD33DE94BDC252F5951BB1D1)
Полное имя : E:\The Matrix Quadrilogy (1999 - 2021) BDRip - HEVC 1080p 10 bit 60 FPS\The Matrix Resurrections (2021) BDRip - HEVC 1080p 10 bit 60 FPS.mkv
Формат : Matroska
Версия формата : Version 2
Размер файла : 3,38 Гбайт
Продолжительность : 2 ч. 27 м.
Общий поток : 3 275 Кбит/сек
Название фильма : Rip by from DD2D3
Дата кодирования : UTC 2022-04-01 17:16:07
Программа кодирования : mkvmerge v6.9.1 ('Blue Panther') 32bit built on Apr 18 2014 18:15:44
Библиотека кодирования : libebml v1.3.0 + libmatroska v1.4.1
Attachments : poster

Видео
Идентификатор : 1
Формат : HEVC
Формат/Информация : High Efficiency Video Coding
Профиль формата : Main [email protected]@Main
Идентификатор кодека : V_MPEGH/ISO/HEVC
Продолжительность : 2 ч. 27 м.
Битрейт : 2 762 Кбит/сек
Ширина : 1 920 пикселей
Высота : 808 пикселей
Высота оригинала : 804 пикселя
Соотношение сторон : 2,40:1
Соотношение сторон в оригинале : 2,40:1
Режим частоты кадров : Постоянный
Частота кадров : 59,940 (60000/1001) кадров/сек
Цветовое пространство : YUV
Субдискретизация насыщенности : 4:2:0
Битовая глубина : 10 бит
Бит/(Пиксели*Кадры) : 0.030
Размер потока : 2,85 Гбайт (84%)
Default : Да
Forced : Нет
Цветовой диапазон : Limited
Основные цвета : BT.709
Характеристики трансфера : BT.709
Коэффициенты матрицы : BT.709

Аудио
Идентификатор : 2
Формат : E-AC-3
Формат/Информация : Enhanced AC-3
Коммерческое название : Dolby Digital Plus
Идентификатор кодека : A_EAC3
Продолжительность : 2 ч. 27 м.
Вид битрейта : Постоянный
Битрейт : 448 Кбит/сек
Каналы : 6 каналов
Channel layout : L R C LFE Ls Rs
Частота : 48,0 КГц
Частота кадров : 31,250 кадров/сек (1536 SPF)
Метод сжатия : С потерями
Размер потока : 474 Мбайт (14%)
Заголовок : Дубляж
Язык : Russian
Service kind : Complete Main
Default : Да
Forced : Да
Statistics Tags Issue : mkvmerge v59.0.0 ('Shining Star') 64-bit 2022-02-23 03:37:55 / mkvmerge v6.9.1 ('Blue Panther') 32bit built on Apr 18 2014 18:15:44 2022-04-01 17:16:07
FromStats_BitRate : 448000
FromStats_Duration : 02:27:55.648000000
FromStats_FrameCount : 277364
FromStats_StreamSize : 497036288

Текст
Идентификатор : 3
Формат : UTF-8
Идентификатор кодека : S_TEXT/UTF8
Идентификатор кодека/Информация : UTF-8 Plain Text
Заголовок : Full
Язык : Russian
Default : Нет
Forced : Нет
Statistics Tags Issue : mkvmerge v59.0.0 ('Shining Star') 64-bit 2022-02-23 03:37:55 / mkvmerge v6.9.1 ('Blue Panther') 32bit built on Apr 18 2014 18:15:44 2022-04-01 17:16:07
FromStats_BitRate : 76
FromStats_Duration : 02:26:49.238000000
FromStats_FrameCount : 1688
FromStats_StreamSize : 84522

Меню
00:00:00.000 : en:Chapter 01
00:04:06.079 : en:Chapter 02
00:13:44.782 : en:Chapter 03
00:22:39.358 : en:Chapter 04
00:30:47.637 : en:Chapter 05
00:39:00.630 : en:Chapter 06
00:47:42.485 : en:Chapter 07
00:54:20.799 : en:Chapter 08
01:03:01.194 : en:Chapter 09
01:11:51.557 : en:Chapter 10
01:20:40.294 : en:Chapter 11
01:30:30.258 : en:Chapter 12
01:39:38.681 : en:Chapter 13
01:48:59.867 : en:Chapter 14
01:53:17.874 : en:Chapter 15
02:02:57.620 : en:Chapter 16
02:12:33.445 : en:Chapter 17
02:16:40.901 : en:Chapter 18




Скачать Матрица: Квадрология через торрент https://i116.fastpic.org/big/2022/0329/7b/1ee1b1f29ca5588b4f96b6603830217b.jpg Скачать, смотреть онлайн Матрица: Квадрология бесплантно в хорошем качестве Описание: Жизнь Томаса Андерсона разделена на две части: днём он — самый обычный офисный работник, получающий нагоняи от начальства, а ... 10 10 6
Info! Золотая раздача, скачанное не засчитывается.
Торрент: Зарегистрирован [2022-04-01 17:56] · скачан: 51 раз
Статус: √ проверено
Размер: 18.08 GB
Как cкачать? Как скачать Матрица: Квадрология через торрент | UTorrent




Последний раз редактировалось: dd2d3 (2022-04-01 17:56), всего редактировалось 1 раз

28-11-2019 20:33  


Отключить вcю реклaмy на сайте, в т.ч. и в плеере онлайн просмотра!

29-03-2022 18:10 Матрица: Квадрология Скачать торрент  

ждёмс!!!



29-03-2022 22:46 Матрица: Квадрология Скачать торрент  

трилогия матрица и неведомая херня бонусом под видом четвертого фильма))



01-04-2022 18:22 Матрица: Квадрология Скачать торрент  

The Matrix Resurrections (2021) BDRip - HEVC 1080p 10 bit 60 FPS

Субтитры: убрал вшитые субтитры



02-04-2022 21:21 Матрица: Квадрология Скачать торрент  

Супер!!! Вот это подарок!!! Шедевр!!!
Большое Спасибо dd2d3! star star star star star
Спасибо от всех любителей 1080pх60fps High&End ваши релизы бомба!
Как всегда помогу с раздачей!
muscle

Спасибо Друг, что ты есть! yes
Best Regards, Your V&S!



    Дорогой пользователь! Огромная просьба, поблагодарите релизера, оцените раздачу и оставьте свои комментарий, если Вы скачали Матрица: Квадрология через торрент бесплатно!!
    Комментировать посты могут только пользователи прошедшие не сложную регистрацию
    Показать сообщения:    


    Матрица: Квадрология через торрент
    Скачать бесплатно Матрица: Квадрология
    Матрица: Квадрология скачать торрент
    Матрица: Квадрология смотреть онлайн
    Cкачать фильм Матрица: Квадрология бесплатно
    Матрица: Квадрология скачать торрент в хорошем качестве
    Матрица: Квадрология смотреть онлайн бесплатно в хорошем качестве
    Вы не можете начинать темы
    Вы не можете отвечать на сообщения
    Вы не можете редактировать свои сообщения
    Вы не можете удалять свои сообщения
    Вы не можете голосовать в опросах
    Вы не можете прикреплять файлы к сообщениям
    Вы можете скачивать файлы
    Матрица: Квадрология / The Matrix: Quadrilogy [1999-2021, Боевик, фантастика, приключения, BDRip - HEVC 1080p 10 bit 60 FPS, Дубляж] смотреть онлайн, скачать торрент picoco.icu