Всегда рабочее зеркало без VPN и Proxy просто перед .vidak.icu напиши любое слово или цифру, Пример http://1zjb.vidak.icu

MVO

Лицензия

1 сезон

1

1 сезон

iTunes

1 сезон

13

1 сезон

Deluxe

pack

Рекомендуем

Repack

30

ВАЖНО

RePack

MK11

RePack

jed

RePack

fifa19

RePack

RDR2

RePack

NEED FOR SPEED™ PAYBACK

Кинопоиск HD

6 сезон

 Острые козырьки 6 сезон

Все сериалы

все сериалы на PB.wtf

RePack

FAR CRY 5
  
Magnet ссылка

Банкиры / Azor (Андреас Фонтана) [2021, Триллер, драма, BD Remux 1080p] MVO [Кинопоиск HD] pb.wtf

Банкиры через торрент pb.wtf

Размер: 25.99 GB | Добавлен: 3 мес. 8 д. назад | Торрент скачан:7 раз
Смотреть онлайн Банкиры | Скачать    Ребята, помогите собрать деньги на оплату серверов!!!

30-03-2022 01:16 Банкиры Скачать торрент  

Банкиры | Azor
Год выпуска: 2021
Страна: Швейцария, Франция, Аргентина
Студия: Alina Film, Local Films, Radio Télévision Suisse (RTS), Ruda Cine
Жанр: Триллер, драма
Продолжительность: 01:40:07
Перевод: Профессиональный (многоголосый) | Кинопоиск HD
Субтитры: Русские (Full), английские

Режиссер: Андреас Фонтана

rating

В ролях: Фабрицио Ронджоне, Стефани Клео, Элли Медейрос, Александр Троки, Хуан Пабло Геретто, Жиль Приват, Хуан Тренч, Пабло Торре Нильсон, Кармен Ириондо, Ивэйн Жюйяр

Описание: Швейцарский частный банкир Айвэн де Виль приезжает в Буэнос-Айрес вместе со своей женой Инес. Официально они приехали на отдых, но на самом деле банкир хочет найти своего партнера Рене Киса, который загадочно исчез. В Аргентине утвердилась военная диктатура и в разгаре политические репрессии. Рене отвечал за связи с богатыми аргентинскими клиентами, которые предпочитали держать свои капиталы за границей. Теперь Айвэн общается с теми, кто причастен к установлению диктаторского режима. Пока богатые аргентинцы договариваются о сохранении своих капиталов в швейцарских банках за аперитивом в роскошном отеле, на улицах города военные хватают прохожих и кидают их в тюрьмы. «Азор» — аргентинская драма о неприглядной стороне истории страны.

Качество: BD Remux 1080p
Формат: MKV

Видео: MPEG-4 AVC, 1920x1080, 32.4 Mbit/s, 24.000 fps
Аудио #01: 48 kHz, AC3, 5.1, 448 Kbps | Профессиональный многоголосый | Кинопоиск HD | RUS |
Аудио #02: 48 kHz, E-AC3, 5.1, 448 Kbps | Профессиональный многоголосый | Кинопоиск HD | RUS |
Аудио #03: 48 kHz, DTS-HD MA, 5.1, 3840 Kbps | Оригинал | FRE |
скриншот  скриншот  скриншот  скриншот  скриншот  

General
Unique ID : 306034461551127899353109025554060372685 (0xE63C17E5E385F8C6879AD60400F96ACD)
Complete name : D:Video1Azor.2021.BDREMUX.1080p.seleZen.mkv
Format : Matroska
Format version : Version 4
File size : 26.0 GiB
Duration : 1 h 40 min
Overall bit rate mode : Variable
Overall bit rate : 37.2 Mb/s
Movie name : Azor 2021 from seleZen
Encoded date : UTC 2022-03-29 22:58:21
Writing application : mkvmerge v59.0.0 ('Shining Star') 64-bit
Writing library : libebml v1.4.2 + libmatroska v1.6.4

Video
ID : 1
Format : AVC
Format/Info : Advanced Video Codec
Format profile : [email protected]
Format settings : CABAC / 4 Ref Frames
Format settings, CABAC : Yes
Format settings, Reference : 4 frames
Codec ID : V_MPEG4/ISO/AVC
Duration : 1 h 40 min
Bit rate mode : Constant
Bit rate : 32.4 Mb/s
Nominal bit rate : 35.0 Mb/s
Width : 1 920 pixels
Height : 1 080 pixels
Display aspect ratio : 16:9
Frame rate mode : Constant
Frame rate : 24.000 FPS
Standard : NTSC
Color space : YUV
Chroma subsampling : 4:2:0
Bit depth : 8 bits
Scan type : Progressive
Bits/(Pixel*Frame) : 0.651
Stream size : 22.7 GiB (87%)
Language : English
Default : Yes
Forced : No
Color range : Limited
Color primaries : BT.709
Transfer characteristics : BT.709
Matrix coefficients : BT.709

Audio #1
ID : 2
Format : AC-3
Format/Info : Audio Coding 3
Commercial name : Dolby Digital
Codec ID : A_AC3
Duration : 1 h 40 min
Bit rate mode : Constant
Bit rate : 448 kb/s
Channel(s) : 6 channels
Channel layout : L R C LFE Ls Rs
Sampling rate : 48.0 kHz
Frame rate : 31.250 FPS (1536 SPF)
Compression mode : Lossy
Stream size : 321 MiB (1%)
Title : MVO [Kinopoisk HD]
Language : Russian
Service kind : Complete Main
Default : Yes
Forced : Yes

Audio #2
ID : 3
Format : E-AC-3
Format/Info : Enhanced AC-3
Commercial name : Dolby Digital Plus
Codec ID : A_EAC3
Duration : 1 h 40 min
Bit rate mode : Constant
Bit rate : 448 kb/s
Channel(s) : 6 channels
Channel layout : L R C LFE Ls Rs
Sampling rate : 48.0 kHz
Frame rate : 31.250 FPS (1536 SPF)
Compression mode : Lossy
Stream size : 321 MiB (1%)
Title : MVO [Kinopoisk HD]
Language : Russian
Service kind : Complete Main
Default : No
Forced : No

Audio #3
ID : 4
Format : DTS XLL
Format/Info : Digital Theater Systems
Commercial name : DTS-HD Master Audio
Codec ID : A_DTS
Duration : 1 h 40 min
Bit rate mode : Variable
Bit rate : 3 840 kb/s
Channel(s) : 6 channels
Channel layout : C L R Ls Rs LFE
Sampling rate : 48.0 kHz
Frame rate : 93.750 FPS (512 SPF)
Bit depth : 24 bits
Compression mode : Lossless
Stream size : 2.69 GiB (10%)
Title : Original
Language : French
Default : No
Forced : No

Text #1
ID : 5
Format : UTF-8
Codec ID : S_TEXT/UTF8
Codec ID/Info : UTF-8 Plain Text
Duration : 1 h 32 min
Bit rate : 78 b/s
Count of elements : 1246
Stream size : 53.2 KiB (0%)
Title : Full
Language : Russian
Default : No
Forced : No

Text #2
ID : 6
Format : UTF-8
Codec ID : S_TEXT/UTF8
Codec ID/Info : UTF-8 Plain Text
Duration : 1 h 32 min
Bit rate : 48 b/s
Count of elements : 1029
Stream size : 32.7 KiB (0%)
Title : Full
Language : English
Default : No
Forced : No

Menu
00:00:00.000 : Chapter 01
00:04:03.625 : Chapter 02
00:09:33.333 : Chapter 03
00:17:22.083 : Chapter 04
00:29:45.792 : Chapter 05
00:46:28.250 : Chapter 06
00:59:20.708 : Chapter 07
01:11:50.917 : Chapter 08
01:20:27.208 : Chapter 09
01:24:55.958 : Chapter 10
01:36:13.000 : Chapter 11

pb.wtf



Скачать Банкиры через торрент https://i6.imageban.ru/out/2022/03/29/5ecd7f239a9b6aa7c199b15033400fa8.png Скачать, смотреть онлайн Банкиры бесплантно в хорошем качестве Описание: Швейцарский частный банкир Айвэн де Виль приезжает в Буэнос-Айрес вместе со своей женой Инес. Официально они приехали на отдых, ... 10 10 2
Торрент: Зарегистрирован [2022-03-30 01:16] · скачан: 7 раз
Статус: √ проверено
Размер: 25.99 GB
Как cкачать? Как скачать Банкиры через торрент | UTorrent

% Раздел Тема Автор DL S | L
Фильмы [HD 720p, 1080p] (Хороший звук DUB, MVO) [ 4.24 GB ] Банкиры / Azor [2021 BDRip 720p] MVO [Кинопоиск HD] bober100 Скачать
2 | 0
Фильмы 2021 [DVDrip, WEB-DLRip, HDrip] (DUB, MVO) [ 2.19 GB ] Банкиры / Azor [2021 BDRip-AVC] MVO [Кинопоиск HD] bober100 Скачать
1 | 0
Фильмы [HD 720p, 1080p] (Хороший звук DUB, MVO) [ 9.67 GB ] Банкиры / Azor [2021 BDRip 1080p] MVO [Кинопоиск HD] bober100 Скачать
1 | 0
Фильмы 2021 [DVDrip, WEB-DLRip, HDrip] (DUB, MVO) [ 720 MB ] Банкиры / Azor [2021 WEB-DLRip многоголосый закадровый ""] coc900 Скачать
1 | 0
Фильмы 2021 [DVDrip, WEB-DLRip, HDrip] (DUB, MVO) [ 1.46 GB ] Банкиры / Azor [2021 WEB-DLRip] MVO bober100 Скачать
1 | 0

28-11-2019 20:33  

Отключить всю рекламу на сайте

    Дорогой пользователь! Огромная просьба, поблагодарите релизера, оцените раздачу и оставьте свои комментарий, если Вы скачали Банкиры через торрент бесплатно!
    Комментировать посты могут только пользователи прошедшие не сложную регистрацию
    Показать сообщения:    

    Банкиры через торрент
    Скачать бесплатно Банкиры
    Банкиры скачать торрент
    Банкиры смотреть онлайн
    Cкачать фильм Банкиры бесплатно
    Банкиры скачать торрент в хорошем качестве
    Банкиры смотреть онлайн бесплатно в хорошем качестве


    Вы не можете начинать темы
    Вы не можете отвечать на сообщения
    Вы не можете редактировать свои сообщения
    Вы не можете удалять свои сообщения
    Вы не можете голосовать в опросах
    Вы не можете прикреплять файлы к сообщениям
    Вы можете скачивать файлы