Всегда рабочее зеркало без VPN и Proxy просто перед .vidak.icu напиши любое слово или цифру, Пример http://lu04.vidak.icu

MVO

Лицензия

1 сезон

1

1 сезон

iTunes

1 сезон

13

1 сезон

Deluxe

pack

Рекомендуем

Пиратка

30

ВАЖНО

RePack

MK11

RePack

jed

RePack

fifa19

RePack

RDR2

RePack

NEED FOR SPEED™ PAYBACK

Кинопоиск HD

6 сезон

 Острые козырьки 6 сезон

Все сериалы

все сериалы на PB.wtf

RePack

FAR CRY 5
  
Magnet ссылка

Банкиры / Azor (Андреас Фонтана) [2021, Триллер, драма, BDRip 720p] MVO [Кинопоиск HD] pb.wtf

Банкиры через торрент pb.wtf

Раздают: 2 [ 0 KB/s ]
Размер: 4.24 GB | Добавлен: 3 мес. 4 д. назад | Торрент скачан:48 раз
Смотреть онлайн Банкиры | Скачать    Ребята, помогите собрать деньги на оплату серверов!!!

30-03-2022 04:08 Банкиры Скачать торрент  

Банкиры | Azor
Год выпуска: 2021
Страна: Швейцария, Франция, Аргентина
Студия: Alina Film, Local Films, Radio Télévision Suisse (RTS), Ruda Cine
Жанр: Триллер, драма
Продолжительность: 01:40:07
Перевод: Профессиональный (многоголосый) | Кинопоиск HD
Субтитры: Русские, английские (Full, SDH)

Режиссер: Андреас Фонтана

rating

В ролях: Фабрицио Ронджоне, Стефани Клео, Элли Медейрос, Александр Троки, Хуан Пабло Геретто, Жиль Приват, Хуан Тренч, Пабло Торре Нильсон, Кармен Ириондо, Ивэйн Жюйяр

Описание: Швейцарский частный банкир Айвэн де Виль приезжает в Буэнос-Айрес вместе со своей женой Инес. Официально они приехали на отдых, но на самом деле банкир хочет найти своего партнера Рене Киса, который загадочно исчез. В Аргентине утвердилась военная диктатура и в разгаре политические репрессии. Рене отвечал за связи с богатыми аргентинскими клиентами, которые предпочитали держать свои капиталы за границей. Теперь Айвэн общается с теми, кто причастен к установлению диктаторского режима. Пока богатые аргентинцы договариваются о сохранении своих капиталов в швейцарских банках за аперитивом в роскошном отеле, на улицах города военные хватают прохожих и кидают их в тюрьмы. «Азор» — аргентинская драма о неприглядной стороне истории страны.

Качество: BDRip 720p
Формат: MKV

Видео: MPEG-4 AVC, 1200x720 (5:3), 4973 kbps, 24 fps
Аудио #01: 48 kHz, AC3, 5.1, 448 Kbps | Профессиональный многоголосый | Кинопоиск HD | RUS |
Аудио #02: 48 kHz, AC3, 5.1, 640 Kbps | Оригинал | FRE |
скриншот  скриншот  скриншот  скриншот  скриншот  

Общее
Уникальный идентификатор : 111396267538901593905171399095279278098 (0x53CE24072F0592B569CE06151315D812)
Полное имя : D:\Azor.2021.BDRip.720p.Rus.Fre.-HELLYWOOD.mkv
Формат : Matroska
Версия формата : Version 4
Размер файла : 4,24 Гбайт
Продолжительность : 1 ч. 40 м.
Общий поток : 6 059 Кбит/сек
Название фильма : Azor (2021)
Дата кодирования : UTC 2022-03-30 03:37:15
Программа кодирования : mkvmerge v62.0.0 ('Apollo') 64-bit
Библиотека кодирования : libebml v1.4.2 + libmatroska v1.6.4

Видео
Идентификатор : 1
Формат : AVC
Формат/Информация : Advanced Video Codec
Профиль формата : High@L4.1
Настройки формата : CABAC / 9 Ref Frames
Параметр CABAC формата : Да
Параметр RefFrames формата : 9 кадров
Идентификатор кодека : V_MPEG4/ISO/AVC
Продолжительность : 1 ч. 40 м.
Битрейт : 4 973 Кбит/сек
Ширина : 1 200 пикселей
Высота : 720 пикселей
Соотношение сторон : 5:3
Режим частоты кадров : Постоянный
Частота кадров : 24,000 кадра/сек
Цветовое пространство : YUV
Субдискретизация насыщенности : 4:2:0
Битовая глубина : 8 бит
Тип развёртки : Прогрессивная
Бит/(Пиксели*Кадры) : 0.240
Размер потока : 3,39 Гбайт (80%)
Заголовок : potroks
Библиотека кодирования : x264 core 163
Настройки программы : cabac=1 / ref=9 / deblock=1:-2:-2 / analyse=0x3:0x133 / me=umh / subme=11 / psy=1 / psy_rd=1.00:0.00 / mixed_ref=1 / me_range=32 / chroma_me=0 / trellis=2 / 8x8dct=1 / cqm=0 / deadzone=21,11 / fast_pskip=0 / chroma_qp_offset=-2 / threads=19 / lookahead_threads=4 / sliced_threads=0 / nr=0 / decimate=1 / interlaced=0 / bluray_compat=0 / constrained_intra=0 / bframes=11 / b_pyramid=2 / b_adapt=2 / b_bias=0 / direct=0 / weightb=1 / open_gop=0 / weightp=2 / keyint=240 / keyint_min=23 / scenecut=40 / intra_refresh=0 / rc_lookahead=100 / rc=2pass / mbtree=0 / bitrate=4973 / ratetol=1.0 / qcomp=0.70 / qpmin=0 / qpmax=69 / qpstep=5 / cplxblur=20.0 / qblur=0.5 / vbv_maxrate=50000 / vbv_bufsize=62500 / nal_hrd=none / filler=0 / ip_ratio=1.40 / pb_ratio=1.30 / aq=1:0.80
Язык : French
Default : Да
Forced : Нет
Цветовой диапазон : Limited
Основные цвета : BT.709
Характеристики трансфера : BT.709
Коэффициенты матрицы : BT.709

Аудио #1
Идентификатор : 2
Формат : AC-3
Формат/Информация : Audio Coding 3
Коммерческое название : Dolby Digital
Идентификатор кодека : A_AC3
Продолжительность : 1 ч. 40 м.
Вид битрейта : Постоянный
Битрейт : 448 Кбит/сек
Каналы : 6 каналов
Channel layout : L R C LFE Ls Rs
Частота : 48,0 КГц
Частота кадров : 31,250 кадров/сек (1536 SPF)
Метод сжатия : С потерями
Размер потока : 321 Мбайт (7%)
Заголовок : MVO | DD 5.1 @ 448 kbps - Kinopoisk HD
Язык : Russian
Service kind : Complete Main
Default : Да
Forced : Нет

Аудио #2
Идентификатор : 3
Формат : AC-3
Формат/Информация : Audio Coding 3
Коммерческое название : Dolby Digital
Идентификатор кодека : A_AC3
Продолжительность : 1 ч. 40 м.
Вид битрейта : Постоянный
Битрейт : 640 Кбит/сек
Каналы : 6 каналов
Channel layout : L R C LFE Ls Rs
Частота : 48,0 КГц
Частота кадров : 31,250 кадров/сек (1536 SPF)
Битовая глубина : 16 бит
Метод сжатия : С потерями
Размер потока : 458 Мбайт (11%)
Заголовок : Original | DD 5.1 @ 448 kbps
Язык : French
Service kind : Complete Main
Default : Нет
Forced : Нет

Текст #1
Идентификатор : 4
Формат : UTF-8
Идентификатор кодека : S_TEXT/UTF8
Идентификатор кодека/Информация : UTF-8 Plain Text
Заголовок : Full
Язык : Russian
Default : Нет
Forced : Нет

Текст #2
Идентификатор : 5
Формат : UTF-8
Идентификатор кодека : S_TEXT/UTF8
Идентификатор кодека/Информация : UTF-8 Plain Text
Заголовок : Full
Язык : English
Default : Нет
Forced : Нет

Текст #3
Идентификатор : 6
Формат : UTF-8
Идентификатор кодека : S_TEXT/UTF8
Идентификатор кодека/Информация : UTF-8 Plain Text
Заголовок : SDH
Язык : English
Default : Нет
Forced : Нет

Меню
00:00:00.000 : fr:Chapter 01
00:04:03.625 : fr:Chapter 02
00:09:33.333 : fr:Chapter 03
00:17:22.083 : fr:Chapter 04
00:29:45.792 : fr:Chapter 05
00:46:28.250 : fr:Chapter 06
00:59:20.708 : fr:Chapter 07
01:11:50.917 : fr:Chapter 08
01:20:27.208 : fr:Chapter 09
01:24:55.958 : fr:Chapter 10
01:36:13.000 : fr:Chapter 11

pb.wtf



Скачать Банкиры через торрент https://i6.imageban.ru/out/2022/03/29/5ecd7f239a9b6aa7c199b15033400fa8.png Скачать, смотреть онлайн Банкиры бесплантно в хорошем качестве Описание: Швейцарский частный банкир Айвэн де Виль приезжает в Буэнос-Айрес вместе со своей женой Инес. Официально они приехали на отдых, ... 7 10 3
Торрент: Зарегистрирован [2022-03-30 04:08] · скачан: 48 раз
Статус: √ проверено
Размер: 4.24 GB
Как cкачать? Как скачать Банкиры через торрент | UTorrent

% Раздел Тема Автор DL S | L
Фильмы 2021 [DVDrip, WEB-DLRip, HDrip] (DUB, MVO) [ 2.19 GB ] Банкиры / Azor [2021 BDRip-AVC] MVO [Кинопоиск HD] bober100 Скачать
2 | 0
Фильмы (Blu-ray, BD-Remux, HDDVD) [ 25.99 GB ] Банкиры / Azor [2021 BD Remux 1080p] MVO [Кинопоиск HD] bober100 Скачать
1 | 0
Фильмы [HD 720p, 1080p] (Хороший звук DUB, MVO) [ 9.67 GB ] Банкиры / Azor [2021 BDRip 1080p] MVO [Кинопоиск HD] bober100 Скачать
1 | 0
Фильмы 2021 [DVDrip, WEB-DLRip, HDrip] (DUB, MVO) [ 720 MB ] Банкиры / Azor [2021 WEB-DLRip многоголосый закадровый ""] coc900 Скачать
1 | 0
Фильмы 2021 [DVDrip, WEB-DLRip, HDrip] (DUB, MVO) [ 1.46 GB ] Банкиры / Azor [2021 WEB-DLRip] MVO bober100 Скачать
1 | 0

28-11-2019 20:33  

Отключить всю рекламу на сайте

    Дорогой пользователь! Огромная просьба, поблагодарите релизера, оцените раздачу и оставьте свои комментарий, если Вы скачали Банкиры через торрент бесплатно!
    Комментировать посты могут только пользователи прошедшие не сложную регистрацию
    Показать сообщения:    

    Банкиры через торрент
    Скачать бесплатно Банкиры
    Банкиры скачать торрент
    Банкиры смотреть онлайн
    Cкачать фильм Банкиры бесплатно
    Банкиры скачать торрент в хорошем качестве
    Банкиры смотреть онлайн бесплатно в хорошем качестве


    Вы не можете начинать темы
    Вы не можете отвечать на сообщения
    Вы не можете редактировать свои сообщения
    Вы не можете удалять свои сообщения
    Вы не можете голосовать в опросах
    Вы не можете прикреплять файлы к сообщениям
    Вы можете скачивать файлы