Всегда рабочее зеркало без VPN и Proxy просто перед .vidak.icu напиши любое слово или цифру, Пример http://9t7d.vidak.icu

MVO

2 сезон

2 сезон

1

1 сезон

iTunes

2 сезон

13

1 сезон

Deluxe

pack

Рекомендуем

Пиратка

30

ВАЖНО

RePack

MK11

RePack

jed

RePack

fifa19

RePack

RDR2

RePack

NEED FOR SPEED™ PAYBACK

Кинопоиск HD

6 сезон

 Острые козырьки 6 сезон

Все сериалы

все сериалы на PB.wtf

RePack

FAR CRY 5

Anonymous, нам критически не хватает 5601 руб. на оплату серверов и переферии за Апрель, помоги нам пожалуйста, вся надежда только на тебя. В благодарность мы отключим тебе всю рекламу на сайте!

×
  
Magnet ссылка

Преступный квест / Apex (Эдвард Дрэйк) [2021, триллер, боевик, HDRip-AVC] DUB [iTunes] от ExKinoRay pb.wtf

Преступный квест через торрент pb.wtf

Раздают: 2 [ 0 KB/s ]
Размер: 1.82 GB | Добавлен: 1 мес. 18 д. назад | Торрент скачан:56 раз
Смотреть онлайн Преступный квест | Скачать    Ребята, помогите собрать деньги на оплату серверов!!!

31-03-2022 16:49 Преступный квест Скачать торрент  


Преступный квест / Apex
Информация о фильме:
Название: Преступный квест
Оригинальное название: Apex
Год выхода: 2021
Жанр: триллер, боевик
Режиссер: Эдвард Дрэйк
В ролях: Нил МакДонаф, Брюс Уиллис, Кори Лардж, Алексия Фаст, Локлин Манро, Нельс Леннарсон, Меган Пета Хилл, Тревор Гретцки, Clem Duranseaud, Эверли Лардж

Описание: В центре сюжета оказываются пятеро профессиональных охотников. Они перестали получать удовольствие от любимого увлечения, поскольку изучили повадки всех диких животных. Им точно известно, как будет вести себя добыча в той или иной ситуации. Это стало основной причиной для того, чтобы согласиться принять участие в новой охоте, которую устраивают только за большие деньги. Герои отправляются на необитаемый остров, где им предстоит участвовать в загоне живого человека. Это совершенно другой уровень, поскольку добыча может использовать свой разум для спасения. Но никто из героев даже представить себе не мог, что их ждет обмен ролями.



Страна: Франция, Бельгия
Студия: Sombrero Films, Siddhi Films, Frakas Productions
Продолжительность: 01:33:33
Перевод: Дублированный - iTunes



Информация о файле:
Кодек: AVC
Формат: MKV
Качество: WEB-DLRip-AVC
Видео: MPEG-4 AVC, 1024x428, 23.976 fps, 1950 kbps
Аудио RU: AC3, 6 ch, 48 kHz, 384 kbps
Аудио EN: AC3, 6 ch, 48 kHz, 448 kbps
Субтитры: Нет

x264 info: frame I:1148 Avg QP:15.12 size: 77939
x264 info: frame P:30846 Avg QP:18.41 size: 21603
x264 info: frame B:102586 Avg QP:19.73 size: 5963
General
Unique ID : 123445802098377471368370441184129005276 (0x5CDECBF30663B4B4975851C9F74F36DC)
Complete name : D:uTorrentРипы wolf1245Apex.2021.DUB.iTunes.x264.HDRip-AVC.[wolf1245.ExKinoRay].mkv
Format : Matroska
Format version : Version 4
File size : 1.82 GiB
Duration : 1 h 33 min
Overall bit rate : 2 783 kb/s
Movie name : Apex.2021.DUB.iTunes.x264.HDRip-AVC.[wolf1245.ExKinoRay]
Encoded date : UTC 2022-03-31 16:35:30
Writing application : mkvmerge v66.0.0 ('Josie') 64-bit
Writing library : libebml v1.4.2 + libmatroska v1.6.4
Video
ID : 1
Format : AVC
Format/Info : Advanced Video Codec
Format profile : High@L4.1
Format settings : CABAC / 12 Ref Frames
Format settings, CABAC : Yes
Format settings, Reference frames : 12 frames
Codec ID : V_MPEG4/ISO/AVC
Duration : 1 h 33 min
Bit rate : 1 950 kb/s
Width : 1 024 pixels
Height : 428 pixels
Display aspect ratio : 2.40:1
Frame rate mode : Constant
Frame rate : 23.976 (24000/1001) FPS
Color space : YUV
Chroma subsampling : 4:2:0
Bit depth : 8 bits
Scan type : Progressive
Bits/(Pixel*Frame) : 0.186
Stream size : 1.27 GiB (70%)
Title : -=[wolf1245.ExKinoRay]=-
Writing library : x264 core 163 r3060 5db6aa6
Encoding settings : cabac=1 / ref=12 / deblock=1:-2:-2 / analyse=0x3:0x133 / me=umh / subme=11 / psy=1 / psy_rd=1.05:0.15 / mixed_ref=1 / me_range=32 / chroma_me=1 / trellis=2 / 8x8dct=1 / cqm=0 / deadzone=22,11 / fast_pskip=1 / chroma_qp_offset=-3 / threads=10 / lookahead_threads=2 / sliced_threads=0 / nr=0 / decimate=0 / interlaced=0 / bluray_compat=0 / constrained_intra=0 / bframes=10 / b_pyramid=2 / b_adapt=2 / b_bias=0 / direct=3 / weightb=1 / open_gop=0 / weightp=2 / keyint=240 / keyint_min=24 / scenecut=40 / intra_refresh=0 / rc_lookahead=60 / rc=2pass / mbtree=0 / bitrate=1950 / ratetol=1.0 / qcomp=0.60 / qpmin=0 / qpmax=69 / qpstep=4 / cplxblur=20.0 / qblur=0.5 / vbv_maxrate=50000 / vbv_bufsize=62500 / nal_hrd=none / filler=0 / ip_ratio=1.40 / pb_ratio=1.30 / aq=2:0.90
Language : English
Default : Yes
Forced : No
Audio #1
ID : 2
Format : AC-3
Format/Info : Audio Coding 3
Commercial name : Dolby Digital
Codec ID : A_AC3
Duration : 1 h 33 min
Bit rate mode : Constant
Bit rate : 384 kb/s
Channel(s) : 6 channels
Channel layout : L R C LFE Ls Rs
Sampling rate : 48.0 kHz
Frame rate : 31.250 FPS (1536 SPF)
Compression mode : Lossy
Stream size : 257 MiB (14%)
Title : DUB | iTunes | RUS
Language : Russian
Service kind : Complete Main
Default : Yes
Forced : Yes
Audio #2
ID : 3
Format : AC-3
Format/Info : Audio Coding 3
Commercial name : Dolby Digital
Codec ID : A_AC3
Duration : 1 h 33 min
Bit rate mode : Constant
Bit rate : 448 kb/s
Channel(s) : 6 channels
Channel layout : L R C LFE Ls Rs
Sampling rate : 48.0 kHz
Frame rate : 31.250 FPS (1536 SPF)
Compression mode : Lossy
Stream size : 300 MiB (16%)
Title : Original | ENG
Language : English
Service kind : Complete Main
Default : No
Forced : No
Menu
00:00:00.000 : :Chapter 1
00:08:58.788 : :Chapter 2
00:14:19.649 : :Chapter 3
00:21:46.430 : :Chapter 4
00:27:54.923 : :Chapter 5
00:35:23.036 : :Chapter 6
00:43:24.643 : :Chapter 7
00:52:23.264 : :Chapter 8
00:59:42.996 : :Chapter 9
01:12:06.613 : :Chapter 10
01:21:47.527 : :Chapter 11
01:31:29.064 : :Chapter 12
01:33:33.100 : :Chapter 13
Релиз от:
Автор релиза:
pb.wtf



Скачать Преступный квест через торрент http://i116.fastpic.org/big/2022/0331/53/944e2e18115c7a2956011e8c887a8c53.jpg Скачать, смотреть онлайн Преступный квест бесплантно в хорошем качестве Описание: В центре сюжета оказываются пятеро профессиональных охотников. Они перестали получать удовольствие от любимого увлечения, ... 9.5 10 4
Торрент: Зарегистрирован [2022-03-31 16:49] · скачан: 56 раз
Статус: √ проверено
Размер: 1.82 GB
Как cкачать? Как скачать Преступный квест через торрент | UTorrent

28-11-2019 20:33  

Отключить всю рекламу на сайте

01-04-2022 03:03 Преступный квест Скачать торрент  

Последний фильм Брюса? Весьма неплохо для дедули.pb.wtf



    Дорогой пользователь! Огромная просьба, поблагодарите релизера, оцените раздачу и оставьте свои комментарий, если Вы скачали Преступный квест через торрент бесплатно!
    Комментировать посты могут только пользователи прошедшие не сложную регистрацию
    Показать сообщения:    

    Преступный квест через торрент
    Скачать бесплатно Преступный квест
    Преступный квест скачать торрент
    Преступный квест смотреть онлайн
    Cкачать фильм Преступный квест бесплатно
    Преступный квест скачать торрент в хорошем качестве
    Преступный квест смотреть онлайн бесплатно в хорошем качестве


    Вы не можете начинать темы
    Вы не можете отвечать на сообщения
    Вы не можете редактировать свои сообщения
    Вы не можете удалять свои сообщения
    Вы не можете голосовать в опросах
    Вы не можете прикреплять файлы к сообщениям
    Вы можете скачивать файлы