Всегда рабочее зеркало без VPN и Proxy просто перед .vidak.icu напиши любое слово или цифру, Пример http://h41o.vidak.icu

MVO

2 сезон

1 сезон

1

1 сезон

iTunes

2 сезон

13

1 сезон

Deluxe

pack

Рекомендуем

Пиратка

30

ВАЖНО

RePack

MK11

RePack

jed

RePack

fifa19

RePack

RDR2

RePack

NEED FOR SPEED™ PAYBACK

Кинопоиск HD

6 сезон

 Острые козырьки 6 сезон

Все сериалы

все сериалы на PB.wtf

RePack

FAR CRY 5

Anonymous, нам критически не хватает 5601 руб. на оплату серверов и переферии за Апрель, помоги нам пожалуйста, вся надежда только на тебя. В благодарность мы отключим тебе всю рекламу на сайте!

×
  
Magnet ссылка

Никто не узнает / Сезон: 1 / Серии: 1-8 из 8 (Алёна Званцова) [2022, Драма, WEBRip 1080p] pb.wtf

Никто не узнает через торрент pb.wtf

Раздают: 5 [ 471 KB/s ] Качают: 2 [ 0 KB/s ]
Размер: 10.32 GB | Добавлен: 10 д. назад | Торрент скачан:40 раз
Смотреть онлайн Никто не узнает | Скачать    Ребята, помогите собрать деньги на оплату серверов!!!

01-04-2022 19:46 Никто не узнает Скачать торрент  

Никто не узнает
Год выпуска: 2022
Страна: Россия
Жанр: Драма
Продолжительность: ~ 00:48:00 серия
Субтитры: отсутствуют

Режиссер: Алёна Званцова



В ролях: Евгения Брик, Кирилл Сафонов, Юрий Быков, Виктория Исакова, Олег Ягодин, Александр Робак, Яна Сексте, Арина Алтынова, Надежда Маркина, Кирилл Комаров, Виталий Коваленко, Дарья Урсуляк, Виталия Корниенко, Мария Малиновская, Мирослава Малышкина-Малиновская, Константин Желдин, Дмитрий Фрид, Тимур Абитов, Любовь Макеева, Владимир Носик, Михаил Сафронов, Елена Прудникова, Анастасия Имамова, Алексей Розин, Максим Битюков, Евгений Антропов, Анастасия Бирюкова, Владимир Капустин, Аглая Смирнова, Ольга Бешуля, Наталья Шабанова, Максим Солопов, Эдуард Горбенко, Вадим Норштейн, Николай Сердцев, Даниил Пулях, Анастасия Питель, Александр Вершинин

Описание: Восемь друзей, им уже под сорок, но во многом они еще, как дети: в свободное от своих успешных карьер время гоняют в футбол, ходят большой компанией в кино, живут в свое удовольствие. Но когда сердце подводит Игоря, и он теряет сознание прямо на улице, то решает во что бы то ни стало «подарить» жене ребенка. Есть лишь одна загвоздка: Игорь не может иметь детей. Впрочем, успешный чиновник найдет способ справиться с этим досадным недоразумением, ведь он может совладать со всем, кроме собственных чувств…

Качество: WEBRip 1080p
Формат: MKV

Видео: MPEG-4 AVC, ~ 3500 Кбит/с, 1920x1080, 25 кадр/с
Аудио: 48.0 kHz, AC3 Dolby Digital, 2/0 (L,R) ch, ~ 192 kbps
скриншот  скриншот  скриншот  скриншот  

Complete name : E:Nikto.ne.uznaet.2019.WEB-DL.1080.25KuzmichNikto.ne.uznaet.S01.E01.WEB-DL.1080.25Kuzmich.mkv
Format : Matroska
Format version : Version 4
File size : 1.24 GiB
Duration : 47 min 28 s
Overall bit rate mode : Constant
Overall bit rate : 3 737 kb/s
Encoded date : UTC 2022-04-01 18:05:59
Writing application : mkvmerge v51.0.0 ('I Wish') 64-bit
Writing library : libebml v1.4.0 + libmatroska v1.6.2

Video
ID : 1
Format : AVC
Format/Info : Advanced Video Codec
Format profile : High@L4.1
Format settings : CABAC / 4 Ref Frames
Format settings, CABAC : Yes
Format settings, Reference : 4 frames
Codec ID : V_MPEG4/ISO/AVC
Duration : 47 min 28 s
Bit rate mode : Constant
Bit rate : 3 544 kb/s
Nominal bit rate : 4 800 kb/s
Width : 1 920 pixels
Height : 1 080 pixels
Display aspect ratio : 16:9
Frame rate mode : Constant
Frame rate : 25.000 FPS
Color space : YUV
Chroma subsampling : 4:2:0
Bit depth : 8 bits
Scan type : Progressive
Bits/(Pixel*Frame) : 0.068
Stream size : 1.18 GiB (95%)
Writing library : x264 core 161
Encoding settings : cabac=1 / ref=2 / deblock=1:0:0 / analyse=0x3:0x113 / me=hex / subme=6 / psy=1 / psy_rd=1.00:0.00 / mixed_ref=1 / me_range=16 / chroma_me=1 / trellis=1 / 8x8dct=1 / cqm=0 / deadzone=21,11 / fast_pskip=1 / chroma_qp_offset=-2 / threads=6 / lookahead_threads=1 / sliced_threads=0 / nr=0 / decimate=1 / interlaced=0 / bluray_compat=0 / constrained_intra=0 / bframes=3 / b_pyramid=2 / b_adapt=1 / b_bias=0 / direct=1 / weightb=1 / open_gop=0 / weightp=1 / keyint=250 / keyint_min=25 / scenecut=0 / intra_refresh=0 / rc_lookahead=30 / rc=cbr / mbtree=1 / bitrate=4800 / ratetol=1.0 / qcomp=0.60 / qpmin=0 / qpmax=69 / qpstep=4 / vbv_maxrate=4800 / vbv_bufsize=1200 / nal_hrd=cbr / filler=1 / ip_ratio=1.40 / aq=1:1.00
Default : Yes
Forced : No

Audio
ID : 2
Format : AC-3
Format/Info : Audio Coding 3
Commercial name : Dolby Digital
Codec ID : A_AC3
Duration : 47 min 28 s
Bit rate mode : Constant
Bit rate : 192 kb/s
Channel(s) : 2 channels
Channel layout : L R
Sampling rate : 48.0 kHz
Frame rate : 31.250 FPS (1536 SPF)
Compression mode : Lossy
Stream size : 65.2 MiB (5%)
Language : Russian
Service kind : Complete Main
Default : Yes
Forced : No

Внимание! Раздача ведётся путём добавления новых серий; при каждом добавлении создаётся новый торрент.
Чтобы начать докачку новой серии, пользователям необходимо сделать следующее:
1. Остановить скачивание;
2. Удалить старый торрент у себя из клиента (старые серии удалять не надо);
3. Скачать новый торрент и запустить его у себя в клиенте вместо старого, при этом указать клиенту путь в старую папку куда и должно происходить скачивание новых серий. Ваш клиент при этом должен произвести хеширование (проверку) старой папки и будет докачивать только те серии, которых у вас ещё нет. Старые серии при этом не удаляются, а продолжают раздаваться! Eсли вы уже удалили старые серии, то предотвратить повторную закачку старых серий можно, отжав галочку в соответствующих местах при запуске нового торрента.
pb.wtf



Скачать Никто не узнает через торрент https://i116.fastpic.org/big/2022/0401/96/d3919ae3ba5e85fe569a2f4d38600196.jpg Скачать, смотреть онлайн Никто не узнает бесплантно в хорошем качестве Описание: Восемь друзей, им уже под сорок, но во многом они еще, как дети: в свободное от своих успешных карьер время гоняют в футбол, ... 7.4 10 7
Торрент: Зарегистрирован [2022-05-14 02:43] · скачан: 40 раз
Статус: √ проверено
Размер: 10.32 GB
Как cкачать? Как скачать Никто не узнает через торрент | UTorrent

28-11-2019 20:33  

Отключить всю рекламу на сайте

    Дорогой пользователь! Огромная просьба, поблагодарите релизера, оцените раздачу и оставьте свои комментарий, если Вы скачали Никто не узнает через торрент бесплатно!
    Комментировать посты могут только пользователи прошедшие не сложную регистрацию
    Показать сообщения:    

    Никто не узнает через торрент
    Скачать бесплатно Никто не узнает
    Никто не узнает скачать торрент
    Никто не узнает смотреть онлайн
    Cкачать фильм Никто не узнает бесплатно
    Никто не узнает скачать торрент в хорошем качестве
    Никто не узнает смотреть онлайн бесплатно в хорошем качестве


    Вы не можете начинать темы
    Вы не можете отвечать на сообщения
    Вы не можете редактировать свои сообщения
    Вы не можете удалять свои сообщения
    Вы не можете голосовать в опросах
    Вы не можете прикреплять файлы к сообщениям
    Вы можете скачивать файлы