Доктор Стрэндж

Лицензия

Добыча

MVO

Дом дракона

1 сезон

Тор

Лицензия

Мэверик

Лицензия

Там, где раки поют

MVO

Властелин колец

1 сезон

Ultimate

pack

Рекомендуем

30

Repack

ВАЖНО

ВАЖНО

Ghostwire

RePack

jed

RePack

nioh2

RePack

RDR2

RePack

NEED FOR SPEED™ PAYBACK

RePack

скачать торрент

Кинопоиск HD

Острые козырьки 6 сезон

6 сезон

FAR CRY 6

RePack

скачать торрент

Лицензия

скачать торрент

MVO

1

1 сезон

скачать торрент

1 сезон

скачать торрент

Лицензия

  

Наёмник / The Contractor (Тарик Салех) [2022, Боевик, триллер, BDRip 1080p] DUB [IVI] +MVO [Jaskier]

Наёмник через торрент pb.wtf

Раздают: 1 [ 0 KB/s ]
Размер: 10.42 GB | Добавлен: 4 мес. 9 д. назад | Торрент скачан:132 раза
Смотреть онлайн | Скачать   

02-04-2022 05:00 Наёмник Скачать торрент  

Наёмник
The Contractor

Год выпуска: 2022
Страна: США
Выпущено: 30WEST, Icon Films
Жанр: Боевик, триллер
Продолжительность: 01:43:22
Перевод:
#1: Дублированный | IVI
#2: Профессиональный многоголосый | Jaskier
Субтитры: Английские

Режиссер: Тарик Салех

rating

В ролях: Крис Пайн, Бен Фостер, Гиллиан Джейкобс, Эдди Марсан, Фарес Фарес, Нина Хосс, Дж.Д. Пардо, Кифер Сазерленд, Флориан Мунтяну, Тейт Флетчер

Описание: Служба в армии с детства была мечтой Джеймса Рида, а зеленый берет — предметом гордости. Но после ранений он остается не у дел: в мирном обществе ему нет места, а состояние здоровья приходится поддерживать медикаментами, не всегда самыми «чистыми». И когда подворачивается возможность снова взяться за старое ремесло, бывший солдат не медлит. Но теперь выбор, на кого направить оружие, лежит полностью на нём.

Качество: BDRip 1080p
Формат: MKV

Видео: MPEG-4 AVC, 1920x800, 8347 Kbit/s, 23.976 fps
Аудио #01: 48 kHz, AC3, 5.1, 384 Kbps | Дублированный | RUS |
Аудио #02: 48 kHz, AC3, 5.1, 384 Kbps | Профессиональный многоголосый | Jaskie | RUS |
Аудио #03: 48 kHz, AC3, 5.1, 640 Kbps | Оригинал | ENG |
скриншот  скриншот  скриншот  скриншот  скриншот  скриншот  

General
Unique ID : 289480894762070195107425143221240509708 (0xD9C7FE0AFAA7C3B7F7DBFE717960B50C)
Complete name : E:Video1The.Contractor.2022.BDRip.1080p.seleZen.mkv
Format : Matroska
Format version : Version 4
File size : 10.4 GiB
Duration : 1 h 43 min
Overall bit rate : 14.4 Mb/s
Movie name : The Contractor 2022 from seleZen
Encoded date : UTC 2022-05-27 23:36:16
Writing application : mkvmerge v59.0.0 ('Shining Star') 64-bit
Writing library : libebml v1.4.2 + libmatroska v1.6.4

Video
ID : 1
Format : AVC
Format/Info : Advanced Video Codec
Format profile : [email protected]
Format settings : CABAC / 5 Ref Frames
Format settings, CABAC : Yes
Format settings, Reference : 5 frames
Codec ID : V_MPEG4/ISO/AVC
Duration : 1 h 43 min
Bit rate : 13.0 Mb/s
Width : 1 920 pixels
Height : 804 pixels
Display aspect ratio : 2.40:1
Frame rate mode : Constant
Frame rate : 23.976 (24000/1001) FPS
Color space : YUV
Chroma subsampling : 4:2:0
Bit depth : 8 bits
Scan type : Progressive
Bits/(Pixel*Frame) : 0.352
Stream size : 9.40 GiB (90%)
Title : MTeam
Writing library : x264 core 157 r2938 2b00a84 [email protected] Mod
Encoding settings : cabac=1 / ref=5 / deblock=1:-3:-3 / analyse=0x3:0x133 / me=umh / subme=10 / psy=1 / psy_rd=1.05:0.00 / mixed_ref=1 / me_range=32 / chroma_me=1 / trellis=2 / 8x8dct=1 / cqm=0 / deadzone=21,11 / fast_pskip=0 / chroma_qp_offset=-2 / threads=12 / lookahead_threads=2 / sliced_threads=0 / nr=0 / decimate=0 / interlaced=0 / bluray_compat=0 / constrained_intra=0 / bframes=8 / b_pyramid=2 / b_adapt=2 / b_bias=0 / direct=3 / weightb=1 / open_gop=0 / weightp=2 / keyint=250 / keyint_min=24 / scenecut=40 / intra_refresh=0 / rc_lookahead=250 / rc=crf / mbtree=0 / crf=16.8 / qcomp=0.60 / qpmin=0 / qpmax=69 / qpstep=4 / vbv_maxrate=62500 / vbv_bufsize=78125 / crf_max=0.0 / nal_hrd=none / filler=0 / ip_ratio=1.30 / pb_ratio=1.20 / aq=3:0.80
Language : English
Default : Yes
Forced : No
Color range : Limited
Color primaries : BT.709
Matrix coefficients : BT.709

Audio #1
ID : 2
Format : AC-3
Format/Info : Audio Coding 3
Commercial name : Dolby Digital
Codec ID : A_AC3
Duration : 1 h 43 min
Bit rate mode : Constant
Bit rate : 384 kb/s
Channel(s) : 6 channels
Channel layout : L R C LFE Ls Rs
Sampling rate : 48.0 kHz
Frame rate : 31.250 FPS (1536 SPF)
Compression mode : Lossy
Stream size : 284 MiB (3%)
Title : Dub
Language : Russian
Service kind : Complete Main
Default : Yes
Forced : Yes

Audio #2
ID : 3
Format : AC-3
Format/Info : Audio Coding 3
Commercial name : Dolby Digital
Codec ID : A_AC3
Duration : 1 h 43 min
Bit rate mode : Constant
Bit rate : 384 kb/s
Channel(s) : 6 channels
Channel layout : L R C LFE Ls Rs
Sampling rate : 48.0 kHz
Frame rate : 31.250 FPS (1536 SPF)
Compression mode : Lossy
Stream size : 284 MiB (3%)
Title : MVO [Jaskier]
Language : Russian
Service kind : Complete Main
Default : No
Forced : No

Audio #3
ID : 4
Format : AC-3
Format/Info : Audio Coding 3
Commercial name : Dolby Digital
Codec ID : A_AC3
Duration : 1 h 43 min
Bit rate mode : Constant
Bit rate : 640 kb/s
Channel(s) : 6 channels
Channel layout : L R C LFE Ls Rs
Sampling rate : 48.0 kHz
Frame rate : 31.250 FPS (1536 SPF)
Compression mode : Lossy
Stream size : 473 MiB (4%)
Title : Original
Language : English
Service kind : Complete Main
Default : No
Forced : No

Text #1
ID : 5
Format : UTF-8
Codec ID : S_TEXT/UTF8
Codec ID/Info : UTF-8 Plain Text
Duration : 1 h 36 min
Bit rate : 42 b/s
Count of elements : 1020
Stream size : 30.2 KiB (0%)
Title : Full
Language : English
Default : No
Forced : No

Text #2
ID : 6
Format : UTF-8
Codec ID : S_TEXT/UTF8
Codec ID/Info : UTF-8 Plain Text
Duration : 1 h 36 min
Bit rate : 42 b/s
Count of elements : 1020
Stream size : 30.2 KiB (0%)
Title : SDH
Language : English
Default : No
Forced : No

Menu
00:00:00.000 : Chapter 01
00:08:33.179 : Chapter 02
00:15:19.043 : Chapter 03
00:21:55.564 : Chapter 04
00:28:52.856 : Chapter 05
00:36:15.882 : Chapter 06
00:46:04.595 : Chapter 07
00:53:05.099 : Chapter 08
00:59:15.343 : Chapter 09
01:07:16.032 : Chapter 10
01:13:30.406 : Chapter 11
01:22:28.235 : Chapter 12
01:30:48.234 : Chapter 13
01:37:43.066 : Chapter 14




Скачать Наёмник через торрент http://i4-imageban-ru.translate.goog/out/2022/04/01/3433d0f96f2d9101deed743f01aa52fb.jpg Скачать, смотреть онлайн Наёмник бесплантно в хорошем качестве Описание: Служба в армии с детства была мечтой Джеймса Рида, а зеленый берет — предметом гордости. Но после ранений он остается не у дел: в ... 9.4 10 19
Торрент: Зарегистрирован [2022-05-28 03:14] · скачан: 132 раз
Статус: √ проверено
Размер: 10.42 GB
Как cкачать? Как скачать Наёмник через торрент | UTorrent

% Раздел Тема Автор DL S | L
Фильмы 2022 [DVDrip, WEB-DLRip, HDrip] (DUB, MVO) [ 1.41 GB ] Наёмник / The Contractor | IVI | BDRip bober100 Скачать
2 | 0
Фильмы (Blu-ray, BD-Remux, HDDVD) [ 29.86 GB ] Наёмник / The Contractor | Jaskier | BD Remux 1080p bober100 Скачать
1 | 0
Фильмы 2022 [DVDrip, WEB-DLRip, HDrip] (DUB, MVO) [ 747 MB ] Наёмник / The Contractor | IVI | HDRip bober100 Скачать
1 | 0
Фильмы [HD 720p, 1080p] (Хороший звук DUB, MVO) [ 4.53 GB ] Наёмник / The Contractor | Jaskier | 720p bober100 Скачать
2 | 0
Ultra HD (UHD: 2K, 4K, 8K) [ 11.52 GB ] Наёмник / The Contractor | IVI | 2160p bober100 Скачать
1 | 0
Фильмы 2022 [DVDrip, WEB-DLRip, HDrip] (DUB, MVO) [ 2.26 GB ] Наёмник / The Contractor | Jaskier | DLRip-AVC Lithuania Скачать
3 | 0
Фильмы 2022 [DVDrip, WEB-DLRip, HDrip] (DUB, MVO) [ 1.46 GB ] Наёмник / The Contractor | Jaskier | DLRip bober100 Скачать
5 | 0



Последний раз редактировалось: bober100 (2022-05-28 03:18), всего редактировалось 4 раз(а)

28-11-2019 20:33  


Отключить вcю реклaмy на сайте, в т.ч. и в плеере онлайн просмотра!

19-04-2022 04:51 Наёмник Скачать торрент  

1 скрин сделал все качаю



22-04-2022 20:28 Наёмник Скачать торрент  

понравился педик ? на первом скрине !?



25-04-2022 08:53 Наёмник Скачать торрент  

serika74 писал(а):

понравился педик ? на первом скрине !?

Разбираешься в педиках? Богатый личный опыт?



    Дорогой пользователь! Огромная просьба, поблагодарите релизера, оцените раздачу и оставьте свои комментарий, если Вы скачали Наёмник через торрент бесплатно!!
    Комментировать посты могут только пользователи прошедшие не сложную регистрацию
    Показать сообщения:    


    Наёмник через торрент
    Скачать бесплатно Наёмник
    Наёмник скачать торрент
    Наёмник смотреть онлайн
    Cкачать фильм Наёмник бесплатно
    Наёмник скачать торрент в хорошем качестве
    Наёмник смотреть онлайн бесплатно в хорошем качестве
    Вы не можете начинать темы
    Вы не можете отвечать на сообщения
    Вы не можете редактировать свои сообщения
    Вы не можете удалять свои сообщения
    Вы не можете голосовать в опросах
    Вы не можете прикреплять файлы к сообщениям
    Вы можете скачивать файлы