Всегда рабочее зеркало без VPN и Proxy просто перед .vidak.icu напиши любое слово или цифру, Пример http://8fac.vidak.icu

MVO

Лицензия

1 сезон

1

1 сезон

iTunes

1 сезон

13

1 сезон

Deluxe

pack

Рекомендуем

Пиратка

30

ВАЖНО

RePack

MK11

RePack

jed

RePack

fifa19

RePack

RDR2

RePack

NEED FOR SPEED™ PAYBACK

Кинопоиск HD

6 сезон

 Острые козырьки 6 сезон

Все сериалы

все сериалы на PB.wtf

RePack

FAR CRY 5

Anonymous, нам критически не хватает 2100 руб. на оплату серверов и переферии за МАЙ, помоги нам пожалуйста, вся надежда только на тебя. В благодарность мы отключим тебе всю рекламу на сайте!

×
  
Magnet ссылка

Смерть на Ниле / Death on the Nile (Кеннет Брана) [2022, Детектив, криминал, драма, BDRip 1080p] MVO [Jaskier] pb.wtf

Смерть на Ниле через торрент pb.wtf

Раздают: 19 [ 862 KB/s ] Качают: 1 [ 2 MB/s ]
Размер: 12.46 GB | Добавлен: 2 мес. 22 д. назад | Торрент скачан:614 раз
Смотреть онлайн Смерть на Ниле | Скачать    Ребята, помогите собрать деньги на оплату серверов!!!

02-04-2022 16:47 Смерть на Ниле Скачать торрент  

Смерть на Ниле
Death on the Nile

Год выпуска: 2022
Страна: США, Великобритания
Выпущено: 20th Century Studios? Kinberg Genre? Scott Free Productions
Жанр: Детектив, криминал, драма
Продолжительность: 02:06:57
Перевод: Профессиональный (многоголосый) | Jaskier
Субтитры: Русские (Forced, Full), английские (Forced, Full, SDH)

Режиссер: Кеннет Брана

rating

В ролях: Кеннет Брана, Галь Гадот, Арми Хаммер, Эмма Маккей, Летишиа Райт, Софи Оконедо, Том Бейтман, Аннетт Бенинг, Роуз Лесли, Майкл Раус, Алаа Умузун, Орландо Сил, Чарли Энсон, Дэнни Хьюз, Сэм Джеймс Пейдж

Описание: На этот раз необходимость расследовать загадочное убийство, отвлекаясь от собственного отдыха, настигает Пуаро на борту роскошного круизного парохода, следующего вдоль по Нилу.

Качество: BDRip 1080p
Формат: MKV

Видео: MPEG-4 AVC, 1920x800 (2,40:1), 12580 kbps, 23,976 fps
Аудио#1: 48 kHz, AC3, 5.1, 448 kbps | RUS
Аудио#2: 48 kHz, E-AC3, 5.1, 1024 kbps | ENG
скриншот  скриншот  скриншот  скриншот  скриншот  скриншот  

Общее
Уникальный идентификатор : 269981752311098863249272813474388370553 (0xCB1C981857328D867C94DB639E7FE479)
Полное имя : D:Death.on.The.Nile.2022.BDRip.1080p.Rus.Eng.-HELLYWOOD.mkv
Формат : Matroska
Версия формата : Version 4
Размер файла : 12,5 Гбайт
Продолжительность : 2 ч. 6 м.
Общий поток : 14,1 Мбит/сек
Название фильма : Death on the Nile (2022)
Дата кодирования : UTC 2022-04-02 16:03:31
Программа кодирования : mkvmerge v62.0.0 ('Apollo') 64-bit
Библиотека кодирования : libebml v1.4.2 + libmatroska v1.6.4
Обложка : Yes
Attachments : cover.jpg

Видео
Идентификатор : 1
Формат : AVC
Формат/Информация : Advanced Video Codec
Профиль формата : High@L4.1
Настройки формата : CABAC / 5 Ref Frames
Параметр CABAC формата : Да
Параметр RefFrames формата : 5 кадров
Идентификатор кодека : V_MPEG4/ISO/AVC
Продолжительность : 2 ч. 6 м.
Битрейт : 12,6 Мбит/сек
Ширина : 1 920 пикселей
Высота : 800 пикселей
Соотношение сторон : 2,40:1
Режим частоты кадров : Постоянный
Частота кадров : 23,976 (24000/1001) кадра/сек
Цветовое пространство : YUV
Субдискретизация насыщенности : 4:2:0
Битовая глубина : 8 бит
Тип развёртки : Прогрессивная
Бит/(Пиксели*Кадры) : 0.342
Размер потока : 10,9 Гбайт (88%)
Заголовок : potroks
Библиотека кодирования : x264 core 163
Настройки программы : cabac=1 / ref=5 / deblock=1:-3:-3 / analyse=0x3:0x113 / me=umh / subme=11 / psy=1 / psy_rd=1.03:0.07 / mixed_ref=1 / me_range=32 / chroma_me=0 / trellis=2 / 8x8dct=1 / cqm=0 / deadzone=21,11 / fast_pskip=0 / chroma_qp_offset=-3 / threads=19 / lookahead_threads=4 / sliced_threads=0 / nr=0 / decimate=1 / interlaced=0 / bluray_compat=0 / constrained_intra=0 / bframes=10 / b_pyramid=2 / b_adapt=2 / b_bias=0 / direct=0 / weightb=1 / open_gop=0 / weightp=2 / keyint=240 / keyint_min=23 / scenecut=40 / intra_refresh=0 / rc_lookahead=100 / rc=2pass / mbtree=0 / bitrate=12586 / ratetol=1.0 / qcomp=0.70 / qpmin=0 / qpmax=69 / qpstep=5 / cplxblur=20.0 / qblur=0.5 / vbv_maxrate=50000 / vbv_bufsize=62500 / nal_hrd=none / filler=0 / ip_ratio=1.40 / pb_ratio=1.30 / aq=1:0.80
Язык : English
Default : Да
Forced : Нет

Аудио #1
Идентификатор : 2
Формат : AC-3
Формат/Информация : Audio Coding 3
Коммерческое название : Dolby Digital
Идентификатор кодека : A_AC3
Продолжительность : 2 ч. 6 м.
Вид битрейта : Постоянный
Битрейт : 448 Кбит/сек
Каналы : 6 каналов
Channel layout : L R C LFE Ls Rs
Частота : 48,0 КГц
Частота кадров : 31,250 кадров/сек (1536 SPF)
Битовая глубина : 16 бит
Метод сжатия : С потерями
Размер потока : 407 Мбайт (3%)
Заголовок : MVO | DD 5.1 @ 448 kbps - Jaskier
Язык : Russian
Service kind : Complete Main
Default : Да
Forced : Нет

Аудио #2
Идентификатор : 3
Формат : E-AC-3
Формат/Информация : Enhanced AC-3
Коммерческое название : Dolby Digital Plus
Идентификатор кодека : A_EAC3
Продолжительность : 2 ч. 6 м.
Вид битрейта : Постоянный
Битрейт : 1 024 Кбит/сек
Каналы : 6 каналов
Channel layout : L R C LFE Ls Rs
Частота : 48,0 КГц
Частота кадров : 31,250 кадров/сек (1536 SPF)
Битовая глубина : 16 бит
Метод сжатия : С потерями
Размер потока : 930 Мбайт (7%)
Заголовок : Original | DD+ 5.1 @ 1024 kbps
Язык : English
Service kind : Complete Main
Default : Нет
Forced : Нет

Текст #1
Идентификатор : 4
Формат : UTF-8
Идентификатор кодека : S_TEXT/UTF8
Идентификатор кодека/Информация : UTF-8 Plain Text
Заголовок : Forced
Язык : Russian
Default : Нет
Forced : Да

Текст #2
Идентификатор : 5
Формат : UTF-8
Идентификатор кодека : S_TEXT/UTF8
Идентификатор кодека/Информация : UTF-8 Plain Text
Заголовок : Full
Язык : Russian
Default : Нет
Forced : Нет

Текст #3
Идентификатор : 6
Формат : UTF-8
Идентификатор кодека : S_TEXT/UTF8
Идентификатор кодека/Информация : UTF-8 Plain Text
Заголовок : Forced
Язык : English
Default : Нет
Forced : Нет

Текст #4
Идентификатор : 7
Формат : UTF-8
Идентификатор кодека : S_TEXT/UTF8
Идентификатор кодека/Информация : UTF-8 Plain Text
Заголовок : Full
Язык : English
Default : Нет
Forced : Нет

Текст #5
Идентификатор : 8
Формат : UTF-8
Идентификатор кодека : S_TEXT/UTF8
Идентификатор кодека/Информация : UTF-8 Plain Text
Заголовок : SDH
Язык : English
Default : Нет
Forced : Нет

Меню
00:00:00.000 : en:Chapter 01
00:07:16.227 : en:Chapter 02
00:16:02.002 : en:Chapter 03
00:18:49.878 : en:Chapter 04
00:19:45.559 : en:Chapter 05
00:26:59.242 : en:Chapter 06
00:29:32.145 : en:Chapter 07
00:32:49.217 : en:Chapter 08
00:37:22.990 : en:Chapter 09
00:39:09.513 : en:Chapter 10
00:44:45.599 : en:Chapter 11
00:48:15.434 : en:Chapter 12
00:53:57.150 : en:Chapter 13
00:58:43.937 : en:Chapter 14
01:03:51.911 : en:Chapter 15
01:09:06.809 : en:Chapter 16
01:12:42.024 : en:Chapter 17
01:15:27.523 : en:Chapter 18
01:17:52.084 : en:Chapter 19
01:23:36.886 : en:Chapter 20
01:27:42.590 : en:Chapter 21
01:31:19.724 : en:Chapter 22
01:35:35.438 : en:Chapter 23
01:43:00.924 : en:Chapter 24
01:54:49.132 : en:Chapter 25
01:59:51.767 : en:Chapter 26

pb.wtf



Скачать Смерть на Ниле через торрент https://i7.imageban.ru/out/2022/03/29/1b4855e80c6b1a0043bdb14f2a5eac8e.png Скачать, смотреть онлайн Смерть на Ниле бесплантно в хорошем качестве Описание: На этот раз необходимость расследовать загадочное убийство, отвлекаясь от собственного отдыха, настигает Пуаро на борту ... 10 10 14
Info! Золотая раздача, скачанное не засчитывается.
Торрент: Зарегистрирован [2022-04-02 16:47] · скачан: 614 раз
Статус: √ проверено
Размер: 12.46 GB
Как cкачать? Как скачать Смерть на Ниле через торрент | UTorrent

% Раздел Тема Автор DL S | L
T Фильмы (мультфильмы) cо спонсором показа (Новинки AVI/MKV) [ 2.05 GB ] Смерть на Ниле / Death on the Nile [2022 HDRip] DUB [Line] bober100 Скачать
9 | 0
Фильмы 2022 [DVDrip, WEB-DLRip, HDrip] (DUB, MVO) [ 2.18 GB ] Смерть на Ниле / Death on the Nile [2022 BDRip] MVO [Jaskier] bober100 Скачать
11 | 0
Фильмы 2022 [DVDrip, WEB-DLRip, HDrip] (DUB, MVO) [ 1.46 GB ] Смерть на Ниле / Death on the Nile [2022 BDRip] MVO [Jaskier] bober100 Скачать
3 | 0
Ultra HD (UHD: 2K, 4K, 8K) — видео сверхвысокой чёткости [ 49 GB ] Смерть на Ниле / Death on the Nile [2022 UHD BDRemux 2160p] MVO [Jaskier] bober100 Скачать
6 | 0
Фильмы 2022 [DVDrip, WEB-DLRip, HDrip] (DUB, MVO) [ 2.53 GB ] Смерть на Ниле / Death on the Nile [2022 HDRip-AVC] MVO [Jaskier] от ExKinoRay Lithuania Скачать
12 | 0
Фильмы 2022 [DVDrip, WEB-DLRip, HDrip] (DUB, MVO) [ 2.65 GB ] Смерть на Ниле / Death on the Nile [2022 HDRip-AVC] MVO [Jaskier] bober100 Скачать
28 | 1
T Фильмы (мультфильмы) cо спонсором показа (Новинки AVI/MKV) [ 6.86 GB ] Смерть на Ниле / Death on the Nile [2022 BDRip 720p] DUB [Line] bober100 Скачать
6 | 0

28-11-2019 20:33  

Отключить всю рекламу на сайте

    Дорогой пользователь! Огромная просьба, поблагодарите релизера, оцените раздачу и оставьте свои комментарий, если Вы скачали Смерть на Ниле через торрент бесплатно!
    Комментировать посты могут только пользователи прошедшие не сложную регистрацию
    Показать сообщения:    

    Смерть на Ниле через торрент
    Скачать бесплатно Смерть на Ниле
    Смерть на Ниле скачать торрент
    Смерть на Ниле смотреть онлайн
    Cкачать фильм Смерть на Ниле бесплатно
    Смерть на Ниле скачать торрент в хорошем качестве
    Смерть на Ниле смотреть онлайн бесплатно в хорошем качестве


    Вы не можете начинать темы
    Вы не можете отвечать на сообщения
    Вы не можете редактировать свои сообщения
    Вы не можете удалять свои сообщения
    Вы не можете голосовать в опросах
    Вы не можете прикреплять файлы к сообщениям
    Вы можете скачивать файлы