Доктор Стрэндж

Лицензия

Добыча

Дубляж

Уэнсдэй

1 сезон

Тор

Дубляж

В эфире

Дубляж

Там, где раки поют

MVO

Властелин колец

1 сезон

Deluxe

pack

Рекомендуем

30

Пиратка

ВАЖНО

ВАЖНО

Ghostwire

Пиратка

jed

RePack

nioh2

RePack

RDR2

RePack

NEED FOR SPEED™ PAYBACK

RePack

скачать торрент

Кинопоиск HD

Острые козырьки 6 сезон

6 сезон

FAR CRY 6

RePack

скачать торрент

Лицензия

скачать торрент

MVO

1

1 сезон

скачать торрент

1 сезон

скачать торрент

Лицензия

  

Смерть на Ниле / Death on the Nile (Кеннет Брана) [2022, Детектив, криминал, драма, UHD BDRemux 2160p] Дубляж [Невафильм] +MVO [Jaskier]

Смерть на Ниле через торрент pb.wtf

Раздают: 1 [ 1 KB/s ]
Размер: 49.34 GB | Добавлен: 5 мес. 6 д. назад | Торрент скачан:56 раз
Смотреть онлайн | Скачать   

03-04-2022 08:00 Смерть на Ниле Скачать торрент  

Смерть на Ниле
Death on the Nile

Год выпуска: 2022
Страна: США, Великобритания
Выпущено: 20th Century Studios? Kinberg Genre? Scott Free Productions
Жанр: Детектив, криминал, драма
Продолжительность: 02:06:57
Перевод:
Дублированный | Невафильм
Профессиональный многоголосый | Jaskier
Субтитры: Русские (Forced, 2хFull), английские

Режиссер: Кеннет Брана

rating

В ролях: Кеннет Брана, Галь Гадот, Арми Хаммер, Эмма Маккей, Летишиа Райт, Софи Оконедо, Том Бейтман, Аннетт Бенинг, Роуз Лесли, Майкл Раус

Описание: Действие фильма развивается на борту парохода «Карнак», идущего по Нилу, где Пуаро вынужден расследовать смерть богатой наследницы. Постепенно детектив понимает, что убийство — это не единственное правонарушение, которое совершается или прямо на борту, или ранее совершено людьми, плывущими на «Карнаке». Среди пассажиров обнаруживаются два вора, мошенник, оголтелый коммунист и даже международный террорист. По мотивом одноименного романа Агаты Кристи.

Качество: UHD BDRemux 2160p
Формат: MKV

Видео: 3840x2160 at 23.976 fps, MPEG-H HEVC HDR ~ 47400 kbps avg
Аудио #01: 48 kHz, AC3, 5.1, 384 Kbps | Дублированный | Невафильм | RUS |
Аудио #02: 48 kHz, AC3, 5.1, 448 Kbps | Профессиональный многоголосый | Jaskier | RUS |
Аудио #03: 48 kHz, TrueHD, 7.1, 6723 Kbps | Оригинал | ENG |
Аудио #04: 48 kHz, AC3, 5.1, 640 Kbps | Оригинал | ENG |
скриншот  скриншот  скриншот  скриншот  скриншот  

General
Unique ID : 132949062768387205098159427660140540897 (0x64050EE00F617420C7F31FD5F77473E1)
Complete name : D:\Video1\Death.on.the.Nile.2022.BDREMUX.2160p.HDR.seleZen.mkv
Format : Matroska
Format version : Version 4
File size : 49.3 GiB
Duration : 2 h 7 min
Overall bit rate mode : Variable
Overall bit rate : 55.5 Mb/s
Movie name : Death on the Nile 2022 from seleZen
Encoded date : UTC 2022-06-29 23:47:07
Writing application : mkvmerge v59.0.0 ('Shining Star') 64-bit
Writing library : libebml v1.4.2 + libmatroska v1.6.4

Video
ID : 1
Format : HEVC
Format/Info : High Efficiency Video Coding
Format profile : Main [email protected]@High
HDR format : SMPTE ST 2086, HDR10 compatible
Codec ID : V_MPEGH/ISO/HEVC
Duration : 2 h 6 min
Bit rate : 47.4 Mb/s
Width : 3 840 pixels
Height : 2 160 pixels
Display aspect ratio : 16:9
Frame rate mode : Constant
Frame rate : 23.976 (24000/1001) FPS
Color space : YUV
Chroma subsampling : 4:2:0 (Type 2)
Bit depth : 10 bits
Bits/(Pixel*Frame) : 0.238
Stream size : 42.0 GiB (85%)
Writing library : ATEME Titan File 3.9.6 (4.9.6.2)
Language : English
Default : Yes
Forced : No
Color range : Limited
Color primaries : BT.2020
Transfer characteristics : PQ
Matrix coefficients : BT.2020 non-constant
Mastering display color pri : Display P3
Mastering display luminance : min: 0.0050 cd/m2, max: 1000 cd/m2

Audio #1
ID : 2
Format : AC-3
Format/Info : Audio Coding 3
Commercial name : Dolby Digital
Codec ID : A_AC3
Duration : 2 h 7 min
Bit rate mode : Constant
Bit rate : 384 kb/s
Channel(s) : 6 channels
Channel layout : L R C LFE Ls Rs
Sampling rate : 48.0 kHz
Frame rate : 31.250 FPS (1536 SPF)
Compression mode : Lossy
Stream size : 349 MiB (1%)
Title : Дубляж
Language : Russian
Service kind : Complete Main
Default : Yes
Forced : Yes

Audio #2
ID : 3
Format : AC-3
Format/Info : Audio Coding 3
Commercial name : Dolby Digital
Codec ID : A_AC3
Duration : 2 h 6 min
Bit rate mode : Constant
Bit rate : 448 kb/s
Channel(s) : 6 channels
Channel layout : L R C LFE Ls Rs
Sampling rate : 48.0 kHz
Frame rate : 31.250 FPS (1536 SPF)
Compression mode : Lossy
Stream size : 407 MiB (1%)
Title : MVO [Jaskier]
Language : Russian
Service kind : Complete Main
Default : No
Forced : No

Audio #3
ID : 4
Format : MLP FBA 16-ch
Format/Info : Meridian Lossless Packing FBA with 16-channel presentation
Commercial name : Dolby TrueHD with Dolby Atmos
Codec ID : A_TRUEHD
Duration : 2 h 6 min
Bit rate mode : Variable
Bit rate : 6 723 kb/s
Maximum bit rate : 12.1 Mb/s
Channel(s) : 8 channels
Channel layout : L R C LFE Ls Rs Lb Rb
Sampling rate : 48.0 kHz
Frame rate : 1 200.000 FPS (40 SPF)
Compression mode : Lossless
Stream size : 5.96 GiB (12%)
Title : Original
Language : English
Default : No
Forced : No
Number of dynamic objects : 13
Bed channel count : 1 channel
Bed channel configuration : LFE

Audio #4
ID : 5
Format : AC-3
Format/Info : Audio Coding 3
Commercial name : Dolby Digital
Codec ID : A_AC3
Duration : 2 h 6 min
Bit rate mode : Constant
Bit rate : 640 kb/s
Channel(s) : 6 channels
Channel layout : L R C LFE Ls Rs
Sampling rate : 48.0 kHz
Frame rate : 31.250 FPS (1536 SPF)
Compression mode : Lossy
Stream size : 581 MiB (1%)
Language : English
Service kind : Complete Main
Default : No
Forced : No

Text #1
ID : 6
Format : UTF-8
Codec ID : S_TEXT/UTF8
Codec ID/Info : UTF-8 Plain Text
Duration : 1 h 58 min
Bit rate : 7 b/s
Count of elements : 132
Stream size : 6.25 KiB (0%)
Title : Forced
Language : Russian
Default : No
Forced : No

Text #2
ID : 7
Format : UTF-8
Codec ID : S_TEXT/UTF8
Codec ID/Info : UTF-8 Plain Text
Duration : 1 h 57 min
Bit rate : 101 b/s
Count of elements : 1719
Stream size : 88.0 KiB (0%)
Title : Full [Official]
Language : Russian
Default : No
Forced : No

Text #3
ID : 8
Format : UTF-8
Codec ID : S_TEXT/UTF8
Codec ID/Info : UTF-8 Plain Text
Duration : 1 h 58 min
Bit rate : 125 b/s
Count of elements : 1841
Stream size : 109 KiB (0%)
Title : Full v.2
Language : Russian
Default : No
Forced : No

Text #4
ID : 9
Format : UTF-8
Codec ID : S_TEXT/UTF8
Codec ID/Info : UTF-8 Plain Text
Duration : 1 h 58 min
Bit rate : 75 b/s
Count of elements : 2055
Stream size : 65.7 KiB (0%)
Title : SDH
Language : English
Default : No
Forced : No

Menu
00:00:00.000 : Chapter 01
00:07:16.227 : Chapter 02
00:16:02.003 : Chapter 03
00:18:49.879 : Chapter 04
00:19:45.559 : Chapter 05
00:26:59.243 : Chapter 06
00:29:32.145 : Chapter 07
00:32:49.217 : Chapter 08
00:37:22.991 : Chapter 09
00:39:09.514 : Chapter 10
00:44:45.600 : Chapter 11
00:48:15.434 : Chapter 12
00:53:57.151 : Chapter 13
00:58:43.937 : Chapter 14
01:03:51.911 : Chapter 15
01:09:06.809 : Chapter 16
01:12:42.024 : Chapter 17
01:15:27.523 : Chapter 18
01:17:52.084 : Chapter 19
01:23:36.887 : Chapter 20
01:27:42.591 : Chapter 21
01:31:19.724 : Chapter 22
01:35:35.438 : Chapter 23
01:43:00.925 : Chapter 24
01:54:49.132 : Chapter 25
01:59:51.768 : Chapter 26




Скачать Смерть на Ниле через торрент https://i116.fastpic.org/big/2022/0403/18/fcbfae24db43d5e33b44b5374799b118.jpg Скачать, смотреть онлайн Смерть на Ниле бесплантно в хорошем качестве Описание: Действие фильма развивается на борту парохода «Карнак», идущего по Нилу, где Пуаро вынужден расследовать смерть богатой ... 9.1 10 9
Торрент: Зарегистрирован [2022-06-30 00:33] · скачан: 56 раз
Статус: √ проверено
Размер: 49.34 GB
Как cкачать? Как скачать Смерть на Ниле через торрент | UTorrent

% Раздел Тема Автор DL S | L
Фильмы [HD 720p, 1080p] (Хороший звук DUB, MVO) [ 15.81 GB ] Смерть на Ниле / Death on the Nile | Jaskier | 1080p bober100 Скачать
4 | 0
Фильмы 2022 [DVDrip, WEB-DLRip, HDrip] (DUB, MVO) [ 2.18 GB ] Смерть на Ниле / Death on the Nile | Jaskier | BDRip bober100 Скачать
4 | 1
Фильмы 2022 [DVDrip, WEB-DLRip, HDrip] (DUB, MVO) [ 1.46 GB ] Смерть на Ниле / Death on the Nile | Jaskier | BDRip bober100 Скачать
2 | 0
Фильмы (Blu-ray, BD-Remux, HDDVD) [ 32.22 GB ] Смерть на Ниле / Death on the Nile | Jaskier | BD Remux 1080p bober100 Скачать
1 | 0
Фильмы 2022 [DVDrip, WEB-DLRip, HDrip] (DUB, MVO) [ 3.22 GB ] Смерть на Ниле / Death on the Nile | Jaskier | BDRip-AVC Lithuania Скачать
5 | 0
Фильмы 2022 [DVDrip, WEB-DLRip, HDrip] (DUB, MVO) [ 2.65 GB ] Смерть на Ниле / Death on the Nile | Jaskier | HDRip-AVC bober100 Скачать
10 | 1
Фильмы с украинским озвучиванием [ 2.1 GB ] Смерть на Ниле / Death on the Nile | DUB | 1080p killermax2013 Скачать
1 | 0



Последний раз редактировалось: bober100 (2022-06-30 00:35), всего редактировалось 2 раз(а)

28-11-2019 20:33  


Отключить вcю реклaмy на сайте, в т.ч. и в плеере онлайн просмотра!

03-04-2022 08:22 Смерть на Ниле Скачать торрент  

А здесь дорожка та же, что и в других раздачах с озвучкой Jaskier?



    Дорогой пользователь! Огромная просьба, поблагодарите релизера, оцените раздачу и оставьте свои комментарий, если Вы скачали Смерть на Ниле через торрент бесплатно!!
    Комментировать посты могут только пользователи прошедшие не сложную регистрацию
    Показать сообщения:    


    Смерть на Ниле через торрент
    Скачать бесплатно Смерть на Ниле
    Смерть на Ниле скачать торрент
    Смерть на Ниле смотреть онлайн
    Cкачать фильм Смерть на Ниле бесплатно
    Смерть на Ниле скачать торрент в хорошем качестве
    Смерть на Ниле смотреть онлайн бесплатно в хорошем качестве
    Вы не можете начинать темы
    Вы не можете отвечать на сообщения
    Вы не можете редактировать свои сообщения
    Вы не можете удалять свои сообщения
    Вы не можете голосовать в опросах
    Вы не можете прикреплять файлы к сообщениям
    Вы можете скачивать файлы
    Смерть на Ниле / Death on the Nile [2022, Детектив, криминал, драма, UHD BDRemux 2160p] Дубляж [Невафильм] +MVO [Jaskier] смотреть онлайн, скачать торрент picoco.icu