Всегда рабочее зеркало без VPN и Proxy просто перед .vidak.icu напиши любое слово или цифру, Пример http://32ke.vidak.icu

MVO

Лицензия

1 сезон

1

1 сезон

iTunes

1 сезон

13

1 сезон

Deluxe

pack

Рекомендуем

Пиратка

30

ВАЖНО

RePack

MK11

RePack

jed

RePack

fifa19

RePack

RDR2

RePack

NEED FOR SPEED™ PAYBACK

Кинопоиск HD

6 сезон

 Острые козырьки 6 сезон

Все сериалы

все сериалы на PB.wtf

RePack

FAR CRY 5

Anonymous, нам критически не хватает 2100 руб. на оплату серверов и переферии за МАЙ, помоги нам пожалуйста, вся надежда только на тебя. В благодарность мы отключим тебе всю рекламу на сайте!

×
  
Magnet ссылка

Смерть на Ниле / Death on the Nile (Кеннет Брана) [2022, Детектив, криминал, драма, UHD BDRemux 2160p] MVO [Jaskier] pb.wtf

Смерть на Ниле через торрент pb.wtf

Раздают: 5 [ 885 KB/s ]
Размер: 49 GB | Добавлен: 2 мес. 22 д. назад | Торрент скачан:127 раз
Смотреть онлайн Смерть на Ниле | Скачать    Ребята, помогите собрать деньги на оплату серверов!!!

03-04-2022 08:00 Смерть на Ниле Скачать торрент  

Смерть на Ниле
Death on the Nile

Год выпуска: 2022
Страна: США, Великобритания
Выпущено: 20th Century Studios? Kinberg Genre? Scott Free Productions
Жанр: Детектив, криминал, драма
Продолжительность: 02:06:57
Перевод: Профессиональный (многоголосый) | Jaskier
Субтитры: Русские (Forced, Full), английские

Режиссер: Кеннет Брана

rating

В ролях: Кеннет Брана, Галь Гадот, Арми Хаммер, Эмма Маккей, Летишиа Райт, Софи Оконедо, Том Бейтман, Аннетт Бенинг, Роуз Лесли, Майкл Раус

Описание: Непревзойденный бельгийский сыщик Эркюль Пуаро получает приглашение в роскошное путешествие по Нилу на круизном судне от светских молодоженов Линнет Риджуэй и Саймона Дойла. Молодая миллионерша подозревает, что некто желает ей смерти, и просит детектива помочь ей защитить себя. Череда загадочных убийств не заставляет себя ждать… «Смерть на Ниле» — экранизация детективного романа Агаты Кристи об Эркюле Пуаро от Кеннета Браны.

Качество: UHD BDRemux 2160p
Формат: MKV

Видео: 3840x2160 at 23.976 fps, MPEG-H HEVC HDR Video ~ 47400 kbps avg
Аудио #01: 48 kHz, AC3, 5.1, 448 Kbps | Профессиональный многоголосый | Jaskier | RUS |
Аудио #02: 48 kHz, TrueHD, 7.1, 6723 Kbps | Оригинал | ENG |
Аудио #03: 48 kHz, AC3, 5.1, 640 Kbps | Оригинал | ENG |
скриншот  скриншот  скриншот  скриншот  скриншот  

General
Unique ID : 193702189964346153935410279917664272458 (0x91B9AF4EB272C8121027D5C634B7004A)
Complete name : D:Video1Death.on.the.Nile.2022.BDREMUX.2160p.HDR.seleZen.mkv
Format : Matroska
Format version : Version 4
File size : 49.0 GiB
Duration : 2 h 6 min
Overall bit rate mode : Variable
Overall bit rate : 55.3 Mb/s
Movie name : Death on the Nile 2022 from seleZen
Encoded date : UTC 2022-04-03 07:32:20
Writing application : mkvmerge v59.0.0 ('Shining Star') 64-bit
Writing library : libebml v1.4.2 + libmatroska v1.6.4

Video
ID : 1
ID in the original source m : 4113 (0x1011)
Format : HEVC
Format/Info : High Efficiency Video Coding
Format profile : Main 10@L5.1@High
HDR format : SMPTE ST 2086, HDR10 compatible
Codec ID : V_MPEGH/ISO/HEVC
Duration : 2 h 6 min
Bit rate : 47.4 Mb/s
Width : 3 840 pixels
Height : 2 160 pixels
Display aspect ratio : 16:9
Frame rate mode : Constant
Frame rate : 23.976 (24000/1001) FPS
Color space : YUV
Chroma subsampling : 4:2:0 (Type 2)
Bit depth : 10 bits
Bits/(Pixel*Frame) : 0.238
Stream size : 42.0 GiB (86%)
Writing library : ATEME Titan File 3.9.6 (4.9.6.2)
Language : English
Default : No
Forced : No
Color range : Limited
Color primaries : BT.2020
Transfer characteristics : PQ
Matrix coefficients : BT.2020 non-constant
Mastering display color pri : Display P3
Mastering display luminance : min: 0.0050 cd/m2, max: 1000 cd/m2
Maximum Content Light Level : 0 cd/m2
Maximum Frame-Average Light : 0 cd/m2
Original source medium : Blu-ray

Audio #1
ID : 2
Format : AC-3
Format/Info : Audio Coding 3
Commercial name : Dolby Digital
Codec ID : A_AC3
Duration : 2 h 6 min
Bit rate mode : Constant
Bit rate : 448 kb/s
Channel(s) : 6 channels
Channel layout : L R C LFE Ls Rs
Sampling rate : 48.0 kHz
Frame rate : 31.250 FPS (1536 SPF)
Bit depth : 16 bits
Compression mode : Lossy
Stream size : 407 MiB (1%)
Title : MVO [Jaskier]
Language : Russian
Service kind : Complete Main
Default : Yes
Forced : No

Audio #2
ID : 3
ID in the original source m : 4352 (0x1100)
Format : MLP FBA 16-ch
Format/Info : Meridian Lossless Packing FBA with 16-channel presentation
Commercial name : Dolby TrueHD with Dolby Atmos
Codec ID : A_TRUEHD
Duration : 2 h 6 min
Bit rate mode : Variable
Bit rate : 6 723 kb/s
Maximum bit rate : 12.1 Mb/s
Channel(s) : 8 channels
Channel layout : L R C LFE Ls Rs Lb Rb
Sampling rate : 48.0 kHz
Frame rate : 1 200.000 FPS (40 SPF)
Bit depth : 24 bits
Compression mode : Lossless
Stream size : 5.96 GiB (12%)
Title : Original
Language : English
Default : No
Forced : No
Original source medium : Blu-ray
Number of dynamic objects : 13
Bed channel count : 1 channel
Bed channel configuration : LFE

Audio #3
ID : 4
Format : AC-3
Format/Info : Audio Coding 3
Commercial name : Dolby Digital
Codec ID : A_AC3
Duration : 2 h 6 min
Bit rate mode : Constant
Bit rate : 640 kb/s
Channel(s) : 6 channels
Channel layout : L R C LFE Ls Rs
Sampling rate : 48.0 kHz
Frame rate : 31.250 FPS (1536 SPF)
Compression mode : Lossy
Stream size : 581 MiB (1%)
Language : English
Service kind : Complete Main
Default : No
Forced : No

Text #1
ID : 5
Format : UTF-8
Codec ID : S_TEXT/UTF8
Codec ID/Info : UTF-8 Plain Text
Duration : 1 h 58 min
Bit rate : 4 b/s
Count of elements : 73
Stream size : 3.53 KiB (0%)
Title : Forced
Language : Russian
Default : Yes
Forced : Yes

Text #2
ID : 6
Format : UTF-8
Codec ID : S_TEXT/UTF8
Codec ID/Info : UTF-8 Plain Text
Duration : 1 h 58 min
Bit rate : 125 b/s
Count of elements : 1841
Stream size : 109 KiB (0%)
Title : Full
Language : Russian
Default : No
Forced : No

Text #3
ID : 7
Format : UTF-8
Codec ID : S_TEXT/UTF8
Codec ID/Info : UTF-8 Plain Text
Duration : 1 h 58 min
Bit rate : 67 b/s
Count of elements : 1800
Stream size : 58.5 KiB (0%)
Title : Full
Language : English
Default : No
Forced : No

Text #4
ID : 8
Format : UTF-8
Codec ID : S_TEXT/UTF8
Codec ID/Info : UTF-8 Plain Text
Duration : 1 h 58 min
Bit rate : 76 b/s
Count of elements : 2014
Stream size : 66.3 KiB (0%)
Title : SDH
Language : English
Default : No
Forced : No

Menu
00:00:00.000 : Chapter 01
00:07:16.227 : Chapter 02
00:16:01.669 : Chapter 03
00:18:49.670 : Chapter 04
00:19:45.559 : Chapter 05
00:26:59.242 : Chapter 06
00:29:32.145 : Chapter 07
00:32:49.217 : Chapter 08
00:37:22.990 : Chapter 09
00:39:09.513 : Chapter 10
00:44:45.599 : Chapter 11
00:48:15.434 : Chapter 12
00:53:57.150 : Chapter 13
00:58:43.937 : Chapter 14
01:03:51.702 : Chapter 15
01:09:06.809 : Chapter 16
01:12:41.899 : Chapter 17
01:15:27.397 : Chapter 18
01:17:52.084 : Chapter 19
01:23:36.886 : Chapter 20
01:27:42.590 : Chapter 21
01:31:19.724 : Chapter 22
01:35:35.396 : Chapter 23
01:43:00.924 : Chapter 24
01:54:48.840 : Chapter 25
01:59:51.684 : Chapter 26

pb.wtf



Скачать Смерть на Ниле через торрент https://i116.fastpic.org/big/2022/0403/18/fcbfae24db43d5e33b44b5374799b118.jpg Скачать, смотреть онлайн Смерть на Ниле бесплантно в хорошем качестве Описание: Непревзойденный бельгийский сыщик Эркюль Пуаро получает приглашение в роскошное путешествие по Нилу на круизном судне от светских ... 10 10 6
Торрент: Зарегистрирован [2022-04-03 08:00] · скачан: 127 раз
Статус: √ проверено
Размер: 49 GB
Как cкачать? Как скачать Смерть на Ниле через торрент | UTorrent

% Раздел Тема Автор DL S | L
T Фильмы (мультфильмы) cо спонсором показа (Новинки AVI/MKV) [ 2.05 GB ] Смерть на Ниле / Death on the Nile [2022 HDRip] DUB [Line] bober100 Скачать
9 | 0
Фильмы 2022 [DVDrip, WEB-DLRip, HDrip] (DUB, MVO) [ 2.18 GB ] Смерть на Ниле / Death on the Nile [2022 BDRip] MVO [Jaskier] bober100 Скачать
11 | 0
Фильмы 2022 [DVDrip, WEB-DLRip, HDrip] (DUB, MVO) [ 1.46 GB ] Смерть на Ниле / Death on the Nile [2022 BDRip] MVO [Jaskier] bober100 Скачать
3 | 0
Фильмы [HD 720p, 1080p] (Хороший звук DUB, MVO) [ 12.46 GB ] Смерть на Ниле / Death on the Nile [2022 BDRip 1080p] MVO [Jaskier] bober100 Скачать
20 | 0
Фильмы 2022 [DVDrip, WEB-DLRip, HDrip] (DUB, MVO) [ 2.53 GB ] Смерть на Ниле / Death on the Nile [2022 HDRip-AVC] MVO [Jaskier] от ExKinoRay Lithuania Скачать
11 | 0
Фильмы 2022 [DVDrip, WEB-DLRip, HDrip] (DUB, MVO) [ 2.65 GB ] Смерть на Ниле / Death on the Nile [2022 HDRip-AVC] MVO [Jaskier] bober100 Скачать
27 | 1
T Фильмы (мультфильмы) cо спонсором показа (Новинки AVI/MKV) [ 6.86 GB ] Смерть на Ниле / Death on the Nile [2022 BDRip 720p] DUB [Line] bober100 Скачать
6 | 0

28-11-2019 20:33  

Отключить всю рекламу на сайте

03-04-2022 08:22 Смерть на Ниле Скачать торрент  

А здесь дорожка та же, что и в других раздачах с озвучкой Jaskier?pb.wtf



    Дорогой пользователь! Огромная просьба, поблагодарите релизера, оцените раздачу и оставьте свои комментарий, если Вы скачали Смерть на Ниле через торрент бесплатно!
    Комментировать посты могут только пользователи прошедшие не сложную регистрацию
    Показать сообщения:    

    Смерть на Ниле через торрент
    Скачать бесплатно Смерть на Ниле
    Смерть на Ниле скачать торрент
    Смерть на Ниле смотреть онлайн
    Cкачать фильм Смерть на Ниле бесплатно
    Смерть на Ниле скачать торрент в хорошем качестве
    Смерть на Ниле смотреть онлайн бесплатно в хорошем качестве


    Вы не можете начинать темы
    Вы не можете отвечать на сообщения
    Вы не можете редактировать свои сообщения
    Вы не можете удалять свои сообщения
    Вы не можете голосовать в опросах
    Вы не можете прикреплять файлы к сообщениям
    Вы можете скачивать файлы