Всегда рабочее зеркало без VPN и Proxy просто перед .vidak.icu напиши любое слово или цифру, Пример http://tqgs.vidak.icu

iTunes

2 сезон

1 сезон

1

1 сезон

iTunes

2 сезон

13

1 сезон

Deluxe

pack

Рекомендуем

Пиратка

30

ВАЖНО

RePack

MK11

RePack

jed

RePack

fifa19

RePack

RDR2

RePack

NEED FOR SPEED™ PAYBACK

Кинопоиск HD

6 сезон

 Острые козырьки 6 сезон

Все сериалы

все сериалы на PB.wtf

RePack

FAR CRY 5

Anonymous, нам критически не хватает 5601 руб. на оплату серверов и переферии за Апрель, помоги нам пожалуйста, вся надежда только на тебя. В благодарность мы отключим тебе всю рекламу на сайте!

×
  
Magnet ссылка

Анастасия / Anastasia (Дон Блат, Гари Голдман) [1997 г., мультфильм, мюзикл, драма, приключения, семейный, BDRip 720p / 60 FPS, Дубляж BD EUR] от R.G. HD-Films pb.wtf

Анастасия через торрент pb.wtf

Раздают: 1 [ 0 KB/s ]
Размер: 2.96 GB | Добавлен: 1 мес. 23 д. назад | Торрент скачан:46 раз
Смотреть онлайн Анастасия | Скачать    Ребята, помогите собрать деньги на оплату серверов!!!

05-04-2022 13:28 Анастасия Скачать торрент  

Анастасия / Anastasia
Год выпуска: 1997
Страна: США
Жанр: мультфильм, мюзикл, драма, приключения, семейный
Продолжительность: 01:34:10
Перевод: Дубляж BD EUR
Субтитры: русские, английские

Режиссер: Дон Блат, Гари Голдман

Бюджет: $53 000 000
Премьера в мире: 14 ноября 1997

rating

В ролях: Мег Райан (Anastasia, озвучка), Джон Кьюсак (Dimitri, озвучка), Келси Грэммер (Vladimir, озвучка), Кристофер Ллойд (Rasputin, озвучка), Хэнк Азария (Bartok, озвучка), Бернадетт Питерс (Sophie, озвучка), Кирстен Данст (Young Anastasia, озвучка), Анджела Лэнсбери (The Dowager Empress Marie, озвучка), Рик Джонс (Czar Nicholas / Servant / Revolutionary Soldier / Ticket Agent, озвучка), Андреа Мартин (Phlegmenkoff / Old Woman, озвучка), Гленн Уолкер Харрис мл. (Young Dimitri, озвучка), Дебра Муни (Actress, озвучка)

Дублировали: Мария Кац (Anastasia (вокал)), Сергей Вещёв (Dimitri), Андрей Ярославцев (Vladimir), Владимир Винокур (Vladimir (вокал)), Александр Буйнов (Rasputin), Игорь Письменный (Bartok), Ирина Губанова (The Dowager Empress Marie), Вера Воронкова

Описание: Анастасия - дочка последнего русского царя Николая, погубленного зловещим Распутиным. Ей удается спастись, добраться вместе с бабушкой до переполненного вокзала и… потеряться в толпе. Проходит десять лет. Анастасия стала взрослой красавицей и теперь хочет попасть в Париж. Сможет ли царевна осуществить задуманное? Ведь Распутин уже поднялся из своей могилы…

Качество: BDRip 720p / 60 FPS
Формат: MKV
Видео кодек: H.264
Аудио кодек: AC3
Видео: x264, 1280 x 544 ( 2,35:1 ), 4115 kbps, 60,000 fps, ( 0.098 bpp)
Аудио#1: Русский, AC-3, 48.0 KHz, 6 ch, 384 Kbps Dub (Blu-ray EUR)
Релиз от: Автор рипа: slaventi-69
x264 [info]: frame I:1365 Avg QP:17.55 size: 77785
x264 [info]: frame P:76308 Avg QP:18.94 size: 18536
x264 [info]: frame B:261025 Avg QP:21.49 size: 5297
x264 [info]: consecutive B-frames: 2.4% 1.3% 3.5% 15.6% 59.6% 17.6%

Общее
Уникальный идентификатор : 212784289072428099778483711410701269549 (0xA014C36E4FCF96AA45C9BA33926EFA2D)
Полное имя : G:\60 FPS\Anastasia.(1997).BDRip.720p.(60 Fps).mkv
Формат : Matroska
Версия формата : Version 4
Размер файла : 2,96 Гбайт
Продолжительность : 1 ч. 34 м.
Общий поток : 4502 Кбит/сек
Название фильма : Анастасия / Anastasia (1997) BDRip 720p (60 Fps)
Дата кодирования : UTC 2022-04-05 12:54:19
Программа кодирования : mkvmerge v25.0.0 ('Prog Noir') 64-bit
Библиотека кодирования : libebml v1.3.6 + libmatroska v1.4.9

Видео
Идентификатор : 1
Формат : AVC
Формат/Информация : Advanced Video Codec
Профиль формата : High@L4.1
Настройки формата : CABAC / 9 Ref Frames
Параметр CABAC формата : Да
Параметр RefFrames формата : 9 кадров
Идентификатор кодека : V_MPEG4/ISO/AVC
Продолжительность : 1 ч. 34 м.
Битрейт : 4115 Кбит/сек
Ширина : 1280 пикселей
Высота : 544 пикселя
Соотношение сторон : 2,35:1
Режим частоты кадров : Постоянный
Частота кадров : 60,000 кадров/сек
Цветовое пространство : YUV
Субдискретизация насыщенности : 4:2:0
Битовая глубина : 8 бит
Тип развёртки : Прогрессивная
Бит/(Пиксели*Кадры) : 0.098
Размер потока : 2,70 Гбайт (91%)
Заголовок : slaventi-69 ( R.G. HD-Films | 60 fps )
Библиотека кодирования : x264 core 130 r2273 b3065e6
Настройки программы : cabac=1 / ref=9 / deblock=1:-1:-1 / analyse=0x3:0x133 / me=umh / subme=9 / psy=1 / psy_rd=1.00:0.00 / mixed_ref=1 / me_range=32 / chroma_me=1 / trellis=2 / 8x8dct=1 / cqm=0 / deadzone=21,11 / fast_pskip=0 / chroma_qp_offset=-2 / threads=8 / lookahead_threads=2 / sliced_threads=0 / nr=0 / decimate=1 / interlaced=0 / bluray_compat=0 / constrained_intra=0 / bframes=5 / b_pyramid=2 / b_adapt=2 / b_bias=0 / direct=2 / weightb=1 / open_gop=0 / weightp=2 / keyint=600 / keyint_min=23 / scenecut=40 / intra_refresh=0 / rc=crf / mbtree=0 / crf=17.2 / qcomp=0.60 / qpmin=0 / qpmax=69 / qpstep=4 / ip_ratio=1.40 / pb_ratio=1.30 / aq=1:1.00
Язык : English
Default : Да
Forced : Нет

Аудио
Идентификатор : 2
Формат : AC-3
Формат/Информация : Audio Coding 3
Коммерческое название : Dolby Digital
Идентификатор кодека : A_AC3
Продолжительность : 1 ч. 34 м.
Вид битрейта : Постоянный
Битрейт : 384 Кбит/сек
Каналы : 6 каналов
Channel layout : L R C LFE Ls Rs
Частота : 48,0 КГц
Частота кадров : 31,250 кадров/сек (1536 SPF)
Битовая глубина : 16 бит
Метод сжатия : С потерями
Размер потока : 258 Мбайт (9%)
Заголовок : Dub (Blu-ray EUR)
Язык : Russian
ServiceKind/String : Complete Main
Default : Да
Forced : Нет

Текст #1
Идентификатор : 3
Формат : UTF-8
Идентификатор кодека : S_TEXT/UTF8
Идентификатор кодека/Информация : UTF-8 Plain Text
Продолжительность : 1 ч. 33 м.
Битрейт : 72 бит/сек
ElementCount : 967
Размер потока : 49,8 Кбайт (0%)
Заголовок : full
Язык : Russian
Default : Нет
Forced : Нет

Текст #2
Идентификатор : 4
Формат : UTF-8
Идентификатор кодека : S_TEXT/UTF8
Идентификатор кодека/Информация : UTF-8 Plain Text
Продолжительность : 1 ч. 33 м.
Битрейт : 129 бит/сек
ElementCount : 1143
Размер потока : 89,2 Кбайт (0%)
Заголовок : comment
Язык : Russian
Default : Нет
Forced : Нет

Текст #3
Идентификатор : 5
Формат : UTF-8
Идентификатор кодека : S_TEXT/UTF8
Идентификатор кодека/Информация : UTF-8 Plain Text
Продолжительность : 1 ч. 33 м.
Битрейт : 51 бит/сек
ElementCount : 1047
Размер потока : 35,1 Кбайт (0%)
Язык : English
Default : Нет
Forced : Нет

Меню
00:00:00.000 : en:00:00:00.000
00:02:23.268 : en:00:02:23.268
00:03:02.808 : en:00:03:02.808
00:06:41.026 : en:00:06:41.026
00:10:10.485 : en:00:10:10.485
00:12:40.051 : en:00:12:40.051
00:15:57.790 : en:00:15:57.790
00:16:45.755 : en:00:16:45.755
00:18:07.169 : en:00:18:07.169
00:20:44.660 : en:00:20:44.660
00:25:41.874 : en:00:25:41.874
00:27:06.041 : en:00:27:06.041
00:29:10.457 : en:00:29:10.457
00:31:26.218 : en:00:31:26.218
00:35:13.611 : en:00:35:13.611
00:38:08.369 : en:00:38:08.369
00:40:12.201 : en:00:40:12.201
00:42:38.347 : en:00:42:38.347
00:45:14.045 : en:00:45:14.045
00:46:20.778 : en:00:46:20.778
00:49:32.303 : en:00:49:32.303
00:52:52.586 : en:00:52:52.586
00:54:08.662 : en:00:54:08.662
00:58:29.631 : en:00:58:29.631
01:01:50.790 : en:01:01:50.790
01:04:59.020 : en:01:04:59.020
01:08:53.796 : en:01:08:53.796
01:11:09.849 : en:01:11:09.849
01:12:00.483 : en:01:12:00.483
01:13:05.381 : en:01:13:05.381
01:14:20.790 : en:01:14:20.790
01:17:04.578 : en:01:17:04.578
01:19:25.052 : en:01:19:25.052
01:22:17.683 : en:01:22:17.683
01:25:10.522 : en:01:25:10.522
01:26:52.416 : en:01:26:52.416

Просьба к переливающим на другие сайты, в оформлении указывайте пожалуйста авторство группы R.G. HD-Films pb.wtf



Скачать Анастасия через торрент https://s1.hostingkartinok.com/uploads/images/2022/02/097f64001d87d7de3912ab7accfb6399.jpg Скачать, смотреть онлайн Анастасия бесплантно в хорошем качестве Описание: Анастасия - дочка последнего русского царя Николая, погубленного зловещим Распутиным. Ей удается спастись, добраться вместе с ... 10 10 5
Торрент: Зарегистрирован [2022-04-05 13:28] · скачан: 46 раз
Статус: √ проверено
Размер: 2.96 GB
Как cкачать? Как скачать Анастасия через торрент | UTorrent

28-11-2019 20:33  

Отключить всю рекламу на сайте

    Дорогой пользователь! Огромная просьба, поблагодарите релизера, оцените раздачу и оставьте свои комментарий, если Вы скачали Анастасия через торрент бесплатно!
    Комментировать посты могут только пользователи прошедшие не сложную регистрацию
    Показать сообщения:    

    Анастасия через торрент
    Скачать бесплатно Анастасия
    Анастасия скачать торрент
    Анастасия смотреть онлайн
    Cкачать фильм Анастасия бесплатно
    Анастасия скачать торрент в хорошем качестве
    Анастасия смотреть онлайн бесплатно в хорошем качестве


    Вы не можете начинать темы
    Вы не можете отвечать на сообщения
    Вы не можете редактировать свои сообщения
    Вы не можете удалять свои сообщения
    Вы не можете голосовать в опросах
    Вы не можете прикреплять файлы к сообщениям
    Вы можете скачивать файлы