Всегда рабочее зеркало без VPN и Proxy просто перед .vidak.icu напиши любое слово или цифру, Пример http://x8kf.vidak.icu

MVO

Лицензия

1 сезон

1

1 сезон

iTunes

1 сезон

13

1 сезон

Deluxe

pack

Рекомендуем

Пиратка

30

ВАЖНО

RePack

MK11

RePack

jed

RePack

fifa19

RePack

RDR2

RePack

NEED FOR SPEED™ PAYBACK

Кинопоиск HD

6 сезон

 Острые козырьки 6 сезон

Все сериалы

все сериалы на PB.wtf

RePack

FAR CRY 5

Anonymous, нам критически не хватает 2100 руб. на оплату серверов и переферии за МАЙ, помоги нам пожалуйста, вся надежда только на тебя. В благодарность мы отключим тебе всю рекламу на сайте!

×
  
Magnet ссылка

Хало / Halo / Сезон: 1 / Серии: 1-9 из 9 (Отто Батхёрст, Джонатан Либесман, Роэль Рейн) [2022, Фантастика, боевик, WEB-DL 1080p] MVO [AlexFilm] pb.wtf

Хало через торрент pb.wtf

Раздают: 2 [ 10 KB/s ] Качают: 2 [ 0 KB/s ]
Размер: 29.76 GB | Добавлен: 1 мес. 5 д. назад | Торрент скачан:76 раз
Смотреть онлайн Хало | Скачать    Ребята, помогите собрать деньги на оплату серверов!!!

05-04-2022 14:37 Хало Скачать торрент  

Хало
Halo

Год выпуска: 2022
Страна: США
Студия: 343 Industries, Amblin Television, Chapter Eleven, Microsoft, Microsoft Studios, One Big Picture, Showtime
Жанр: Фантастика, боевик
Продолжительность: ~ 00:59:00
Перевод: Профессиональный (многоголосый) | AlexFilm
Субтитры: Английские (Full, SDH)

Режиссер: Отто Батхёрст, Джонатан Либесман, Роэль Рейн

rating

В ролях: Пабло Шрайбер, Наташа МакЭлхоун, Ерин Ха, Боким Вудбайн, Джен Тейлор, Шабана Азми, Олив Грэй, Чарли Мёрфи, Кейт Кеннеди, Бентли Калу и др.

Описание: В XXVI веке между земными силами Космического командования Объединённых наций и религиозным союзом нескольких инопланетных рас идёт ожесточённая война. Люди изо всех сил борются за выживание, но всё же сдают позиции на всех фронтах. Последней надеждой становится проект SPARTAN-II — программа создания усиленных людей, которые должны стать самым эффективным оружием в борьбе с пришельцами.
Противники находят и уничтожают планету вместе со спартанцами. Спастись удаётся всего одному кораблю — «Столпу осени», на котором находится последний выживший спартанец Джон-117. Именно ему предстоит изменить ход войны, когда он оказывается на загадочном инопланетном артефакте Halo — мире-кольце.

Качество: WEB-DL 1080p
Формат: MKV

Видео: AVC, 1920x960 (2.000), 24 fps, ~ 8000 Kbps
Аудио №1: AC3, 48,0 kHz, 6 ch, 384 kbps | AlexFilm
Аудио №2: AC3, 48,0 kHz, 6 ch, 640 kbps | Original
Аудио №3: EAC3 JOC, 48,0 kHz, 6 ch, 768 kbps | Original
скриншот  скриншот  скриншот  скриншот  

Complete name : D:Halo_(s01)_AlexFilm_1080pHalo.2022.S01E01.Contact.1080p.AMZN.WEB-DL.DDP5.1.Atmos.x264-NOSiViD_EniaHD.mkv
Format : Matroska
Format version : Version 4
File size : 4.06 GiB
Duration : 58 min 56 s
Overall bit rate : 9 859 kb/s
Encoded date : UTC 2022-04-05 14:25:41
Writing application : mkvmerge v58.0.0 ('Supper's Ready') 64-bit
Writing library : libebml v1.4.2 + libmatroska v1.6.4

Video
ID : 1
Format : AVC
Format/Info : Advanced Video Codec
Format profile : High@L4
Format settings : CABAC / 4 Ref Frames
Format settings, CABAC : Yes
Format settings, Reference : 4 frames
Codec ID : V_MPEG4/ISO/AVC
Duration : 58 min 56 s
Bit rate mode : Constant
Bit rate : 8 064 kb/s
Nominal bit rate : 10 000 kb/s
Width : 1 920 pixels
Height : 960 pixels
Display aspect ratio : 2.000
Frame rate mode : Constant
Frame rate : 24.000 FPS
Color space : YUV
Chroma subsampling : 4:2:0
Bit depth : 8 bits
Scan type : Progressive
Bits/(Pixel*Frame) : 0.182
Stream size : 3.32 GiB (82%)
Title : Release by EniaHD
Default : No
Forced : No
Color range : Limited
Color primaries : BT.709
Transfer characteristics : BT.709
Matrix coefficients : BT.709

Audio #1
ID : 2
Format : AC-3
Format/Info : Audio Coding 3
Commercial name : Dolby Digital
Codec ID : A_AC3
Duration : 58 min 56 s
Bit rate mode : Constant
Bit rate : 384 kb/s
Channel(s) : 6 channels
Channel layout : L R C LFE Ls Rs
Sampling rate : 48.0 kHz
Frame rate : 31.250 FPS (1536 SPF)
Compression mode : Lossy
Stream size : 162 MiB (4%)
Title : AlexFilm
Language : Russian
Service kind : Complete Main
Default : Yes
Forced : No

Audio #2
ID : 3
Format : AC-3
Format/Info : Audio Coding 3
Commercial name : Dolby Digital
Codec ID : A_AC3
Duration : 58 min 56 s
Bit rate mode : Constant
Bit rate : 640 kb/s
Channel(s) : 6 channels
Channel layout : L R C LFE Ls Rs
Sampling rate : 48.0 kHz
Frame rate : 31.250 FPS (1536 SPF)
Compression mode : Lossy
Stream size : 270 MiB (6%)
Language : English
Service kind : Complete Main
Default : No
Forced : No

Audio #3
ID : 4
Format : E-AC-3 JOC
Format/Info : Enhanced AC-3 with Joint Object Coding
Commercial name : Dolby Digital Plus with Dolby Atmos
Codec ID : A_EAC3
Duration : 58 min 56 s
Bit rate mode : Constant
Bit rate : 768 kb/s
Channel(s) : 6 channels
Channel layout : L R C LFE Ls Rs
Sampling rate : 48.0 kHz
Frame rate : 31.250 FPS (1536 SPF)
Compression mode : Lossy
Stream size : 324 MiB (8%)
Language : English
Service kind : Complete Main
Default : No
Forced : No
Complexity index : 16
Number of dynamic objects : 15
Bed channel count : 1 channel
Bed channel configuration : LFE

Text #1
ID : 5
Format : UTF-8
Codec ID : S_TEXT/UTF8
Codec ID/Info : UTF-8 Plain Text
Duration : 55 min 31 s
Bit rate : 43 b/s
Count of elements : 653
Stream size : 17.7 KiB (0%)
Title : Full
Language : English
Default : No
Forced : No

Text #2
ID : 6
Format : UTF-8
Codec ID : S_TEXT/UTF8
Codec ID/Info : UTF-8 Plain Text
Duration : 56 min 49 s
Bit rate : 51 b/s
Count of elements : 830
Stream size : 21.6 KiB (0%)
Title : SDH
Language : English
Default : No
Forced : No

Menu
00:58:51.000 : Credits

Внимание! Раздача ведётся путём добавления новых серий; при каждом добавлении создаётся новый торрент.
Чтобы начать докачку новой серии, пользователям необходимо сделать следующее:
1. Остановить скачивание;
2. Удалить старый торрент у себя из клиента (старые серии удалять не надо);
3. Скачать новый торрент и запустить его у себя в клиенте вместо старого, при этом указать клиенту путь в старую папку куда и должно происходить скачивание новых серий. Ваш клиент при этом должен произвести хеширование (проверку) старой папки и будет докачивать только те серии, которых у вас ещё нет. Старые серии при этом не удаляются, а продолжают раздаваться! Eсли вы уже удалили старые серии, то предотвратить повторную закачку старых серий можно, отжав галочку в соответствующих местах при запуске нового торрента.

pb.wtf



Скачать Хало через торрент https://i4.imageban.ru/out/2022/03/24/817de44037f8db2ea94b76d5beb0ee12.png Скачать, смотреть онлайн Хало бесплантно в хорошем качестве Описание: В XXVI веке между земными силами Космического командования Объединённых наций и религиозным союзом нескольких инопланетных рас ... 9.5 10 26
Торрент: Зарегистрирован [2022-05-20 19:02] · скачан: 76 раз
Статус: √ проверено
Размер: 29.76 GB
Как cкачать? Как скачать Хало через торрент | UTorrent

% Раздел Тема Автор DL S | L
Сборники и Сиквелы (48-60 fps) [ 11.95 GB ] Хало / Halo / Сезон: 1 / Серии: 1-9 из 9 [2022 WEB-DLRip - HEVC 1080p 10 bit 60 FPS MVO] dd2d3 Скачать
3 | 0
Зарубежные сериалы [ 6.7 GB ] Хало / Halo / Сезон: 1 / Серии: 1-9 из 9 [2022 WEB-DLRip] MVO [AlexFilm] bober100 Скачать
3 | 1
Зарубежные сериалы [ 27.56 GB ] Хало / Halo / Сезон: 1 / Серии: 1-9 из 9 [2022 WEB-DL 1080p] MVO [NewComers] bober100 Скачать
1 | 1
Зарубежные сериалы [ 13.4 GB ] Хало / Halo / Сезон: 1 / Серии: 1-9 из 9 [2022 WEB-DL 720p] MVO [LostFilm] bober100 Скачать
9 | 1
T Зарубежные сериалы [ 5.09 GB ] Хало / Halo / Сезон: 1 / Серии: 1-9 из 9 [2022 WEBRip] MVO [ColdFilm] bober100 Скачать
1 | 4
Зарубежные сериалы [ 28.95 GB ] Хало / Halo / Сезон: 1 / Серия: 1-9 из 9 [2022 WEB-DL 1080p] 2 x MVO GEKADOL Скачать
5 | 3
Зарубежные сериалы [ 842 MB ] Хало / Halo / Сезон: 1 / Серии: 1- из 9 [2022 WEB-DLRip] MVO [LostFilm] bober100 Скачать
1 | 0


Последний раз редактировалось: bober100 (2022-05-20 19:02), всего редактировалось 9 раз(а)

28-11-2019 20:33  

Отключить всю рекламу на сайте

05-04-2022 18:27 Хало Скачать торрент  

Неплохо так, неплохо. Смотреть можно. )))pb.wtf



06-05-2022 23:16 Хало Скачать торрент  

Andrew70 писал(а):

Неплохо так, неплохо. Смотреть можно. )))

пилот был четкий, согласен. а дальше все начало валиться в обычное русло. в седьмой серии был апогей занудности. не уверен, что буду досматривать((pb.wtf



22-05-2022 06:28 Хало Скачать торрент  

Добрый день. Мне зашло, спасибо раздающему.
Ждем продолжения.

П/с I fell in love with Cartana pb.wtf



    Дорогой пользователь! Огромная просьба, поблагодарите релизера, оцените раздачу и оставьте свои комментарий, если Вы скачали Хало через торрент бесплатно!
    Комментировать посты могут только пользователи прошедшие не сложную регистрацию
    Показать сообщения:    

    Хало через торрент
    Скачать бесплатно Хало
    Хало скачать торрент
    Хало смотреть онлайн
    Cкачать фильм Хало бесплатно
    Хало скачать торрент в хорошем качестве
    Хало смотреть онлайн бесплатно в хорошем качестве


    Вы не можете начинать темы
    Вы не можете отвечать на сообщения
    Вы не можете редактировать свои сообщения
    Вы не можете удалять свои сообщения
    Вы не можете голосовать в опросах
    Вы не можете прикреплять файлы к сообщениям
    Вы можете скачивать файлы