Всегда рабочее зеркало без VPN и Proxy просто перед .vidak.icu напиши любое слово или цифру, Пример http://ii51.vidak.icu

MVO

Лицензия

1 сезон

1

1 сезон

iTunes

1 сезон

13

1 сезон

Deluxe

pack

Рекомендуем

Пиратка

30

ВАЖНО

RePack

MK11

RePack

jed

RePack

fifa19

RePack

RDR2

RePack

NEED FOR SPEED™ PAYBACK

Кинопоиск HD

6 сезон

 Острые козырьки 6 сезон

Все сериалы

все сериалы на PB.wtf

RePack

FAR CRY 5
  
Magnet ссылка

Мистер Нокаут (Артём Михалков) [2022, Спорт, драма, WEB-DL 1080p] [Кинопоиск HD] pb.wtf

Мистер Нокаут через торрент pb.wtf

Раздают: 9 [ 3 KB/s ]
Размер: 5.62 GB | Добавлен: 2 мес. 25 д. назад | Торрент скачан:548 раз
Смотреть онлайн Мистер Нокаут | Скачать    Ребята, помогите собрать деньги на оплату серверов!!!

05-04-2022 22:47 Мистер Нокаут Скачать торрент  

Мистер Нокаут
Год выпуска: 2022
Страна: Россия
Жанр: Спорт, драма
Продолжительность: 01:57:08
Перевод: Не требуется | Кинопоиск HD
Субтитры: отсутствуют

Режиссер: Артём Михалков

rating

В ролях: Виктор Хориняк, Сергей Безруков, Ангелина Стречина, Инга Оболдина, Евгения Дмитриева, Андрей Титченко, Олег Чугунов, Виктор Вержбицкий, Ирина Ромашева, Валерий Скляров

Описание: История жизни и приключений легендарного советского боксера Валерия Попенченко, чемпиона СССР, Европы и победителя Олимпийских игр 1964 года в Токио — о его детстве в суворовском училище в Ташкенте, о службе курсантом-пограничником, о его первых успехах и неудачах, и о его дружбе с тренером спортивного общества «Динамо» Григорием Кусикьянцем. История о том, что в любом, даже самом престижном поединке, для спортсмена главное — преодолеть себя, свои страхи и слабости, и только тогда можно будет одержать настоящую победу.

Качество: WEB-DL 1080p
Формат: MKV

Видео: MPEG-4 AVC, 6000 Kбит/с, 1920x804
Аудио#1: Русский (AC3, 6 ch, 448 Кбит/с)
Аудио#2: Русский (E-AC3, 6 ch, 448 Кбит/с)
скриншот  скриншот  скриншот  скриншот  

General
Unique ID : 229468913177676603340965288721127978803 (0xACA21AE91C5C0E9786466247C0363733)
Complete name : D:Mister.Nokaut.2022.WEB-Dl.108Op.trevor333.mkv
Format : Matroska
Format version : Version 4
File size : 5.62 GiB
Duration : 1 h 57 min
Overall bit rate : 6 868 kb/s
Movie name : Mister Nokaut 2022 from trevor333
Encoded date : UTC 2022-04-05 21:17:58
Writing application : mkvmerge v16.0.0 ('Protest') 64-bit
Writing library : libebml v1.3.5 + libmatroska v1.4.8

Video
ID : 1
Format : AVC
Format/Info : Advanced Video Codec
Format profile : High@L4
Format settings : CABAC / 5 Ref Frames
Format settings, CABAC : Yes
Format settings, Reference : 5 frames
Codec ID : V_MPEG4/ISO/AVC
Duration : 1 h 57 min
Bit rate : 6 000 kb/s
Width : 1 920 pixels
Height : 804 pixels
Display aspect ratio : 2.40:1
Frame rate mode : Constant
Frame rate : 24.000 FPS
Color space : YUV
Chroma subsampling : 4:2:0
Bit depth : 8 bits
Scan type : Progressive
Bits/(Pixel*Frame) : 0.162
Stream size : 4.88 GiB (87%)
Writing library : x264 core 157
Encoding settings : cabac=1 / ref=5 / deblock=1:0:0 / analyse=0x3:0x133 / me=umh / subme=10 / psy=1 / psy_rd=1.00:0.00 / mixed_ref=1 / me_range=24 / chroma_me=1 / trellis=2 / 8x8dct=1 / cqm=0 / deadzone=21,11 / fast_pskip=1 / chroma_qp_offset=-2 / threads=25 / lookahead_threads=4 / sliced_threads=0 / nr=0 / decimate=1 / interlaced=0 / bluray_compat=0 / constrained_intra=0 / bframes=8 / b_pyramid=2 / b_adapt=2 / b_bias=0 / direct=3 / weightb=1 / open_gop=0 / weightp=2 / keyint=250 / keyint_min=24 / scenecut=40 / intra_refresh=0 / rc_lookahead=60 / rc=2pass / mbtree=1 / bitrate=6000 / ratetol=1.0 / qcomp=0.60 / qpmin=0 / qpmax=69 / qpstep=4 / cplxblur=20.0 / qblur=0.5 / vbv_maxrate=6600 / vbv_bufsize=24000 / nal_hrd=none / filler=0 / ip_ratio=1.40 / aq=1:1.00
Language : Russian
Default : Yes
Forced : No

Audio #1
ID : 2
Format : AC-3
Format/Info : Audio Coding 3
Commercial name : Dolby Digital
Codec ID : A_AC3
Duration : 1 h 57 min
Bit rate mode : Constant
Bit rate : 448 kb/s
Channel(s) : 6 channels
Channel layout : L R C LFE Ls Rs
Sampling rate : 48.0 kHz
Frame rate : 31.250 FPS (1536 SPF)
Compression mode : Lossy
Stream size : 375 MiB (7%)
Language : Russian
Service kind : Complete Main
Default : Yes
Forced : No

Audio #2
ID : 3
Format : E-AC-3
Format/Info : Enhanced AC-3
Commercial name : Dolby Digital Plus
Codec ID : A_EAC3
Duration : 1 h 57 min
Bit rate mode : Constant
Bit rate : 448 kb/s
Channel(s) : 6 channels
Channel layout : L R C LFE Ls Rs
Sampling rate : 48.0 kHz
Frame rate : 31.250 FPS (1536 SPF)
Compression mode : Lossy
Stream size : 375 MiB (7%)
Language : Russian
Service kind : Complete Main
Default : No
Forced : No

pb.wtf



Скачать Мистер Нокаут через торрент https://i116.fastpic.org/big/2022/0406/08/dc895abd9aa4eee97d04b7a2dbc45408.jpg Скачать, смотреть онлайн Мистер Нокаут бесплантно в хорошем качестве Описание: История жизни и приключений легендарного советского боксера Валерия Попенченко, чемпиона СССР, Европы и победителя Олимпийских ... 9.1 10 21
Info! Золотая раздача, скачанное не засчитывается.
Торрент: Зарегистрирован [2022-04-05 22:47] · скачан: 548 раз
Статус: √ проверено
Размер: 5.62 GB
Как cкачать? Как скачать Мистер Нокаут через торрент | UTorrent

% Раздел Тема Автор DL S | L
Наши новые фильмы 2020 - 2022 [ 1.83 GB ] Мистер Нокаут [2022 Спорт WEB-DLRip-AVC] [КиноПоиск HD] bober100 Скачать
3 | 0
Наши фильмы (HD, WEB-DL 720p, 1080p) [ 2.51 GB ] Мистер Нокаут [2022 Спорт WEB-DL 720p] [Кинопоиск HD] bober100 Скачать
12 | 0
Наши новые фильмы 2020 - 2022 [ 1.46 GB ] Мистер Нокаут [2022 Спорт WEB-DLRip] [Кинопоиск HD] bober100 Скачать
7 | 0

28-11-2019 20:33  

Отключить всю рекламу на сайте

    Дорогой пользователь! Огромная просьба, поблагодарите релизера, оцените раздачу и оставьте свои комментарий, если Вы скачали Мистер Нокаут через торрент бесплатно!
    Комментировать посты могут только пользователи прошедшие не сложную регистрацию
    Показать сообщения:    

    Мистер Нокаут через торрент
    Скачать бесплатно Мистер Нокаут
    Мистер Нокаут скачать торрент
    Мистер Нокаут смотреть онлайн
    Cкачать фильм Мистер Нокаут бесплатно
    Мистер Нокаут скачать торрент в хорошем качестве
    Мистер Нокаут смотреть онлайн бесплатно в хорошем качестве


    Вы не можете начинать темы
    Вы не можете отвечать на сообщения
    Вы не можете редактировать свои сообщения
    Вы не можете удалять свои сообщения
    Вы не можете голосовать в опросах
    Вы не можете прикреплять файлы к сообщениям
    Вы можете скачивать файлы