Всегда рабочее зеркало без VPN и Proxy просто перед .vidak.icu напиши любое слово или цифру, Пример http://mzp1.vidak.icu

MVO

Лицензия

1 сезон

1

1 сезон

iTunes

1 сезон

13

1 сезон

Deluxe

pack

Рекомендуем

Пиратка

30

ВАЖНО

RePack

MK11

RePack

jed

RePack

fifa19

RePack

RDR2

RePack

NEED FOR SPEED™ PAYBACK

Кинопоиск HD

6 сезон

 Острые козырьки 6 сезон

Все сериалы

все сериалы на PB.wtf

RePack

FAR CRY 5
  
Magnet ссылка

Мистер Нокаут (Артём Михалков) [2022, Спорт, драма, WEB-DL 720p] [Кинопоиск HD] pb.wtf

Мистер Нокаут через торрент pb.wtf

Раздают: 13 [ 37 KB/s ]
Размер: 2.51 GB | Добавлен: 2 мес. 25 д. назад | Торрент скачан:370 раз
Смотреть онлайн Мистер Нокаут | Скачать    Ребята, помогите собрать деньги на оплату серверов!!!

06-04-2022 11:13 Мистер Нокаут Скачать торрент  

Мистер Нокаут
Год выпуска: 2022
Страна: Россия
Жанр: Спорт, драма
Продолжительность: 01:57:08
Перевод: Не требуется | Кинопоиск HD
Субтитры: отсутствуют

Режиссер: Артём Михалков

rating

В ролях: Виктор Хориняк, Сергей Безруков, Ангелина Стречина, Инга Оболдина, Евгения Дмитриева, Андрей Титченко, Олег Чугунов, Виктор Вержбицкий, Ирина Ромашева, Валерий Скляров

Описание: История жизни и приключений легендарного советского боксера Валерия Попенченко, чемпиона СССР, Европы и победителя Олимпийских игр 1964 года в Токио — о его детстве в суворовском училище в Ташкенте, о службе курсантом-пограничником, о его первых успехах и неудачах, и о его дружбе с тренером спортивного общества «Динамо» Григорием Кусикьянцем. История о том, что в любом, даже самом престижном поединке, для спортсмена главное — преодолеть себя, свои страхи и слабости, и только тогда можно будет одержать настоящую победу.

Качество: WEB-DL 720p
Формат: MKV

Видео: MPEG-4 AVC, 1280x536 at 24.000 fps, x264@L4.1, ~2616 kbps
Аудио: 48 kHz, AC3 Dolby Digital, 3/2 (L, C, R, l, r) + LFE ch, ~448 Kbps
скриншот  скриншот  скриншот  скриншот  скриншот  

x264 [info]: frame I:1503 Avg QP:17.54 size: 65970
x264 [info]: frame P:41000 Avg QP:18.93 size: 25328
x264 [info]: frame B:126183 Avg QP:20.36 size: 9196

General
Unique ID : 48744974597813671513338727946720411731 (0x24ABF0CC944D4960719B74EBA5888053)
Complete name : L:Mister.Nokaut.2022.WEB-DLRip.x264.720p.mkv
Format : Matroska
Format version : Version 4
File size : 2.51 GiB
Duration : 1 h 57 min
Overall bit rate : 3 066 kb/s
Encoded date : UTC 2022-04-06 10:03:31
Writing application : mkvmerge v63.0.0 ('Everything') 64-bit
Writing library : libebml v1.4.2 + libmatroska v1.6.4
Cover : Yes
Attachments : cover.jpg / cover 2.jpg

Video
ID : 1
Format : AVC
Format/Info : Advanced Video Codec
Format profile : High@L4.1
Format settings : CABAC / 12 Ref Frames
Format settings, CABAC : Yes
Format settings, Reference : 12 frames
Codec ID : V_MPEG4/ISO/AVC
Duration : 1 h 57 min
Bit rate : 2 616 kb/s
Width : 1 280 pixels
Height : 536 pixels
Display aspect ratio : 2.40:1
Frame rate mode : Constant
Frame rate : 24.000 FPS
Color space : YUV
Chroma subsampling : 4:2:0
Bit depth : 8 bits
Scan type : Progressive
Bits/(Pixel*Frame) : 0.159
Stream size : 2.14 GiB (85%)
Title : -=DoMiNo=-
Writing library : x264 core 164 r3065+55M 280faca t_mod_New [(8 & 10)-bit@all X86_64]
Encoding settings : cabac=1 / ref=12 / deblock=1:-3:-2 / analyse=0x3:0x133 / me=umh / subme=9 / psy=1 / fade_compensate=0.00 / psy_rd=1.05:0.15 / mixed_ref=1 / me_range=32 / chroma_me=1 / trellis=2 / 8x8dct=1 / cqm=0 / deadzone=21,11 / fast_pskip=0 / chroma_qp_offset=-3 / threads=17 / lookahead_threads=2 / sliced_threads=0 / nr=0 / decimate=1 / interlaced=0 / bluray_compat=0 / constrained_intra=0 / fgo=0 / bframes=9 / b_pyramid=2 / b_adapt=2 / b_bias=0 / direct=1 / weightb=1 / open_gop=0 / weightp=2 / keyint=250 / keyint_min=24 / scenecut=40 / intra_refresh=0 / rc_lookahead=60 / rc=crf / mbtree=0 / crf=20.0000 / qcomp=0.60 / qpmin=0:0:0 / qpmax=69:69:69 / qpstep=4 / vbv_maxrate=50000 / vbv_bufsize=62500 / crf_max=0.0 / nal_hrd=none / filler=0 / ip_ratio=1.30 / pb_ratio=1.20 / aq=3:0.80 / aq-sensitivity=10.00 / aq-factor=1.00:1.00:1.00 / aq2=0 / aq3=0
Language : Russian
Default : Yes
Forced : No
Color range : Limited
Color primaries : BT.709
Transfer characteristics : BT.709

Audio
ID : 2
Format : AC-3
Format/Info : Audio Coding 3
Commercial name : Dolby Digital
Codec ID : A_AC3
Duration : 1 h 57 min
Bit rate mode : Constant
Bit rate : 448 kb/s
Channel(s) : 6 channels
Channel layout : L R C LFE Ls Rs
Sampling rate : 48.0 kHz
Frame rate : 31.250 FPS (1536 SPF)
Compression mode : Lossy
Stream size : 375 MiB (15%)
Language : Russian
Service kind : Complete Main
Default : Yes
Forced : No

Menu
00:00:00.000 : :Глава 01
00:12:35.000 : :Глава 02
00:25:10.000 : :Глава 03
00:37:45.000 : :Глава 04
00:50:20.000 : :Глава 05
01:02:55.000 : :Глава 06
01:15:30.000 : :Глава 07
01:28:05.000 : :Глава 08
01:40:40.000 : :Глава 09
01:53:15.000 : :Глава 10

pb.wtf



Скачать Мистер Нокаут через торрент https://i116.fastpic.org/big/2022/0406/08/dc895abd9aa4eee97d04b7a2dbc45408.jpg Скачать, смотреть онлайн Мистер Нокаут бесплантно в хорошем качестве Описание: История жизни и приключений легендарного советского боксера Валерия Попенченко, чемпиона СССР, Европы и победителя Олимпийских ... 9 10 9
Info! Золотая раздача, скачанное не засчитывается.
Торрент: Зарегистрирован [2022-04-06 11:13] · скачан: 370 раз
Статус: √ проверено
Размер: 2.51 GB
Как cкачать? Как скачать Мистер Нокаут через торрент | UTorrent

% Раздел Тема Автор DL S | L
Наши новые фильмы 2020 - 2022 [ 1.83 GB ] Мистер Нокаут [2022 Спорт WEB-DLRip-AVC] [КиноПоиск HD] bober100 Скачать
3 | 0
Наши новые фильмы 2020 - 2022 [ 1.46 GB ] Мистер Нокаут [2022 Спорт WEB-DLRip] [Кинопоиск HD] bober100 Скачать
6 | 0
Наши фильмы (HD, WEB-DL 720p, 1080p) [ 5.62 GB ] Мистер Нокаут [2022 Спорт WEB-DL 1080p] [Кинопоиск HD] bober100 Скачать
10 | 0

28-11-2019 20:33  

Отключить всю рекламу на сайте

06-04-2022 16:30 Мистер Нокаут Скачать торрент  

Спасибо. Будем посмотреть.)pb.wtf



    Дорогой пользователь! Огромная просьба, поблагодарите релизера, оцените раздачу и оставьте свои комментарий, если Вы скачали Мистер Нокаут через торрент бесплатно!
    Комментировать посты могут только пользователи прошедшие не сложную регистрацию
    Показать сообщения:    

    Мистер Нокаут через торрент
    Скачать бесплатно Мистер Нокаут
    Мистер Нокаут скачать торрент
    Мистер Нокаут смотреть онлайн
    Cкачать фильм Мистер Нокаут бесплатно
    Мистер Нокаут скачать торрент в хорошем качестве
    Мистер Нокаут смотреть онлайн бесплатно в хорошем качестве


    Вы не можете начинать темы
    Вы не можете отвечать на сообщения
    Вы не можете редактировать свои сообщения
    Вы не можете удалять свои сообщения
    Вы не можете голосовать в опросах
    Вы не можете прикреплять файлы к сообщениям
    Вы можете скачивать файлы