Всегда рабочее зеркало без VPN и Proxy просто перед .vidak.icu напиши любое слово или цифру, Пример http://1nnv.vidak.icu

MVO

2 сезон

1 сезон

1

1 сезон

iTunes

2 сезон

13

1 сезон

Deluxe

pack

Рекомендуем

Пиратка

30

ВАЖНО

RePack

MK11

RePack

jed

RePack

fifa19

RePack

RDR2

RePack

NEED FOR SPEED™ PAYBACK

Кинопоиск HD

6 сезон

 Острые козырьки 6 сезон

Все сериалы

все сериалы на PB.wtf

RePack

FAR CRY 5

Anonymous, нам критически не хватает 5601 руб. на оплату серверов и переферии за Апрель, помоги нам пожалуйста, вся надежда только на тебя. В благодарность мы отключим тебе всю рекламу на сайте!

×
  
Magnet ссылка

Мистер Нокаут (Артём Михалков) [2022, Спорт, драма, WEB-DLRip-AVC] [КиноПоиск HD] pb.wtf

Мистер Нокаут через торрент pb.wtf

Раздают: 3 [ 0 KB/s ]
Размер: 1.83 GB | Добавлен: 1 мес. 15 д. назад | Торрент скачан:162 раза
Смотреть онлайн Мистер Нокаут | Скачать    Ребята, помогите собрать деньги на оплату серверов!!!

07-04-2022 17:55 Мистер Нокаут Скачать торрент  

Мистер Нокаут
Год выпуска: 2022
Страна: Россия
Жанр: Спорт, драма
Продолжительность: 01:57:08
Перевод: Не требуется | Кинопоиск HD
Субтитры: отсутствуют

Режиссер: Артём Михалков

rating

В ролях: Виктор Хориняк, Сергей Безруков, Ангелина Стречина, Инга Оболдина, Евгения Дмитриева, Андрей Титченко, Олег Чугунов, Виктор Вержбицкий, Ирина Ромашева, Валерий Скляров

Описание: История жизни и приключений легендарного советского боксера Валерия Попенченко, чемпиона СССР, Европы и победителя Олимпийских игр 1964 года в Токио — о его детстве в суворовском училище в Ташкенте, о службе курсантом-пограничником, о его первых успехах и неудачах, и о его дружбе с тренером спортивного общества «Динамо» Григорием Кусикьянцем. История о том, что в любом, даже самом престижном поединке, для спортсмена главное — преодолеть себя, свои страхи и слабости, и только тогда можно будет одержать настоящую победу.

Качество: WEB-DLRip-AVC
Формат: MKV

Видео: MPEG-4 AVC, ~ 1333 Кбит/с, 1024x432, 24 кадр/с
Аудио#1: AC3, 6 ch, 448 Кбит/с
Аудио#2: E-AC3, 6 ch, 448 Кбит/с
скриншот  скриншот  скриншот  скриншот  скриншот  

General
Unique ID : 262785760087124960956366872286560806332 (0xC5B2B2494DE8FF1508036C9363D465BC)
Complete name : F:Мистер Нокаут.(2022).WEB-DLRip.(AVC).by.Серый1779.Files-x.mkv
Format : Matroska
Format version : Version 4 / Version 2
File size : 1.83 GiB
Duration : 1 h 57 min
Overall bit rate : 2 231 kb/s
Movie name : Mister Nokaut 2022 from trevor333
Encoded date : UTC 2022-04-07 08:22:41
Writing application : mkvmerge v32.0.0 ('Astral Progressions') 64-bit
Writing library : libebml v1.3.7 + libmatroska v1.5.0

Video
ID : 1
Format : AVC
Format/Info : Advanced Video Codec
Format profile : High@L4.1
Format settings : CABAC / 9 Ref Frames
Format settings, CABAC : Yes
Format settings, RefFrames : 9 frames
Codec ID : V_MPEG4/ISO/AVC
Duration : 1 h 57 min
Bit rate : 1 333 kb/s
Width : 1 024 pixels
Height : 432 pixels
Display aspect ratio : 2.40:1
Frame rate mode : Constant
Frame rate : 24.000 FPS
Color space : YUV
Chroma subsampling : 4:2:0
Bit depth : 8 bits
Scan type : Progressive
Bits/(Pixel*Frame) : 0.126
Stream size : 1.09 GiB (60%)
Writing library : x264 core 146 r2538 121396c
Encoding settings : cabac=1 / ref=9 / deblock=1:-2:-1 / analyse=0x3:0x133 / me=umh / subme=9 / psy=1 / psy_rd=1.00:0.15 / mixed_ref=1 / me_range=32 / chroma_me=1 / trellis=2 / 8x8dct=1 / cqm=0 / deadzone=21,11 / fast_pskip=0 / chroma_qp_offset=-3 / threads=18 / lookahead_threads=3 / sliced_threads=0 / nr=0 / decimate=1 / interlaced=0 / bluray_compat=0 / constrained_intra=0 / bframes=9 / b_pyramid=2 / b_adapt=2 / b_bias=0 / direct=3 / weightb=1 / open_gop=0 / weightp=2 / keyint=250 / keyint_min=23 / scenecut=40 / intra_refresh=0 / rc=2pass / mbtree=0 / bitrate=1333 / ratetol=1.0 / qcomp=0.60 / qpmin=0 / qpmax=69 / qpstep=4 / cplxblur=20.0 / qblur=0.5 / ip_ratio=1.40 / pb_ratio=1.30 / aq=2:1.00
Default : Yes
Forced : No
Color range : Limited
Color primaries : BT.709
Transfer characteristics : BT.709
Matrix coefficients : BT.709

Audio #1
ID : 2
Format : AC-3
Format/Info : Audio Coding 3
Format settings, Endianness : Big
Codec ID : A_AC3
Duration : 1 h 57 min
Bit rate mode : Constant
Bit rate : 448 kb/s
Channel(s) : 6 channels
Channel positions : Front: L C R, Side: L R, LFE
Sampling rate : 48.0 kHz
Frame rate : 31.250 FPS (1536 SPF)
Bit depth : 16 bits
Compression mode : Lossy
Stream size : 375 MiB (20%)
Language : Russian
Service kind : Complete Main
Default : Yes
Forced : No

Audio #2
ID : 3
Format : E-AC-3
Format/Info : Enhanced Audio Coding 3
Format settings, Endianness : Big
Codec ID : A_EAC3
Duration : 1 h 57 min
Bit rate mode : Constant
Bit rate : 448 kb/s
Channel(s) : 6 channels
Channel positions : Front: L C R, Side: L R, LFE
Sampling rate : 48.0 kHz
Frame rate : 187.500 FPS (256 SPF)
Compression mode : Lossy
Stream size : 375 MiB (20%)
Language : Russian
Service kind : Complete Main
Default : No
Forced : No

pb.wtf



Скачать Мистер Нокаут через торрент https://i116.fastpic.org/big/2022/0406/08/dc895abd9aa4eee97d04b7a2dbc45408.jpg Скачать, смотреть онлайн Мистер Нокаут бесплантно в хорошем качестве Описание: История жизни и приключений легендарного советского боксера Валерия Попенченко, чемпиона СССР, Европы и победителя Олимпийских ... 10 10 6
Торрент: Зарегистрирован [2022-04-07 17:55] · скачан: 162 раз
Статус: √ проверено
Размер: 1.83 GB
Как cкачать? Как скачать Мистер Нокаут через торрент | UTorrent

% Раздел Тема Автор DL S | L
Наши фильмы (HD, WEB-DL 720p, 1080p) [ 2.51 GB ] Мистер Нокаут [2022 Спорт WEB-DL 720p] [Кинопоиск HD] bober100 Скачать
10 | 0
Наши новые фильмы 2020 - 2022 [ 1.46 GB ] Мистер Нокаут [2022 Спорт WEB-DLRip] [Кинопоиск HD] bober100 Скачать
12 | 0
Наши фильмы (HD, WEB-DL 720p, 1080p) [ 5.62 GB ] Мистер Нокаут [2022 Спорт WEB-DL 1080p] [Кинопоиск HD] bober100 Скачать
5 | 0

28-11-2019 20:33  

Отключить всю рекламу на сайте

    Дорогой пользователь! Огромная просьба, поблагодарите релизера, оцените раздачу и оставьте свои комментарий, если Вы скачали Мистер Нокаут через торрент бесплатно!
    Комментировать посты могут только пользователи прошедшие не сложную регистрацию
    Показать сообщения:    

    Мистер Нокаут через торрент
    Скачать бесплатно Мистер Нокаут
    Мистер Нокаут скачать торрент
    Мистер Нокаут смотреть онлайн
    Cкачать фильм Мистер Нокаут бесплатно
    Мистер Нокаут скачать торрент в хорошем качестве
    Мистер Нокаут смотреть онлайн бесплатно в хорошем качестве


    Вы не можете начинать темы
    Вы не можете отвечать на сообщения
    Вы не можете редактировать свои сообщения
    Вы не можете удалять свои сообщения
    Вы не можете голосовать в опросах
    Вы не можете прикреплять файлы к сообщениям
    Вы можете скачивать файлы