Всегда рабочее зеркало без VPN и Proxy просто перед .vidak.icu напиши любое слово или цифру, Пример http://ndyn.vidak.icu

MVO

Лицензия

1 сезон

1

1 сезон

iTunes

1 сезон

13

1 сезон

Deluxe

pack

Рекомендуем

Пиратка

30

ВАЖНО

RePack

MK11

RePack

jed

RePack

fifa19

RePack

RDR2

RePack

NEED FOR SPEED™ PAYBACK

Кинопоиск HD

6 сезон

 Острые козырьки 6 сезон

Все сериалы

все сериалы на PB.wtf

RePack

FAR CRY 5

Anonymous, нам критически не хватает 2100 руб. на оплату серверов и переферии за МАЙ, помоги нам пожалуйста, вся надежда только на тебя. В благодарность мы отключим тебе всю рекламу на сайте!

×
  
Magnet ссылка

Пассажиры. Последняя любовь на Земле / Сезон: 2 / Серии: 1-8 из 8 (Артём Литвиненко) [2022, Драма, фантастика, триллер, WEB-DLRip] pb.wtf

Пассажиры. Последняя любовь на Земле через торрент pb.wtf

Раздают: 1 [ 0 KB/s ] Качают: 2 [ 0 KB/s ]
Размер: 2.59 GB | Добавлен: 1 мес. 1 д. назад | Торрент скачан:53 раза
Смотреть онлайн Пассажиры. Последняя любовь на Земле | Скачать    Ребята, помогите собрать деньги на оплату серверов!!!

07-04-2022 21:24 Пассажиры. Последняя любовь на Земле Скачать торрент  

Пассажиры. Последняя любовь на Земле
Год выпуска: 2022
Страна: Россия
Выпущено: START
Жанр: Драма, фантастика, триллер
Продолжительность: ~ 00:26:00
Перевод: Не требуется
Субтитры: отсутствуют

Режиссер: Артём Литвиненко



В ролях: Сергей Гилев, Аня Чиповская, Надежда Маркина, Ирина Рахманова, Кирилл Кяро, Сергей Шакуров, Наталия Вдовина, Никита Кологривый, Евгений Сидихин, Вероника Мохирева, Юрий Чурсин, Ольга Науменко, Лев Малишава, Евгения Громова, Данил Иванов, Полина Долиндо, Иван Верховых, Александра Булычёва, Любовь Хацкевич, Инга Фишлер, Андрис Лиелайс, Руслан Джайбеков, Никита Дювбанов, Александр Шестопалов

Описание: Перед новым водителем желтого мерседеса Кириллом стоит непростая задача — научиться чуткости и эмпатии, которые необходимы для общения с клиентами такси. Ведь ему нужно помочь застрявшим на этом свете душам добраться до «точки перехода», узнав, что держит их на Земле и не дает уйти из мира живых. Помогать Кириллу в «перевозке душ» будет пассажирка Мэри, которая тоже застряла между двумя мирами. Теперь Кириллу предстоит пройти испытание не только чужими проблемами, но и собственными чувствами. Есть ли у Кирилла и Мэри возможность исправить ошибки прошлого и куда приведут их отношения?

Качество: WEB-DLRip
Формат: AVI

Видео: XviD, 720х304, ~ 1650 Кбит/с, 0.308 bit/pixel, 25 Кадр/с
Аудио: 48.0 kHz, AC3 Dolby Digital, 2/0 (L,R) ch, ~ 192 kbps
скриншот  скриншот  скриншот  скриншот  

Общее
Полное имя : D:Passazhiry.S02.WEB-DLRip.25KuzmichPassazhiry.s02e01.WEB-DLRip.25Kuzmich.avi
Формат : AVI
Формат/Информация : Audio Video Interleave
Размер файла : 355 Мбайт
Продолжительность : 26 м. 24 с.
Общий поток : 1 879 Кбит/сек
Программа кодирования : VirtualDubMod 1.5.10.3 | www.virtualdub-fr.org || (build 2550/release)
Библиотека кодирования : VirtualDubMod build 2550/release

Видео
Идентификатор : 0
Формат : MPEG-4 Visual
Профиль формата : Advanced Simple@L5
Настройки формата : BVOP1
Параметр BVOP формата : 1
Параметр QPel формата : Нет
Параметр GMC формата : Без точки перехода
Параметр матрицы формата : Default (MPEG)
Идентификатор кодека : XVID
Идентификатор кодека/Подсказка : XviD
Продолжительность : 26 м. 24 с.
Битрейт : 1 685 Кбит/сек
Ширина : 720 пикселей
Высота : 304 пикселя
Соотношение сторон : 2,35:1
Частота кадров : 25,000 кадров/сек
Цветовое пространство : YUV
Субдискретизация насыщенности : 4:2:0
Битовая глубина : 8 бит
Тип развёртки : Прогрессивная
Метод сжатия : С потерями
Бит/(Пиксели*Кадры) : 0.308
Размер потока : 318 Мбайт (90%)
Библиотека кодирования : XviD 73

Аудио
Идентификатор : 1
Формат : AC-3
Формат/Информация : Audio Coding 3
Коммерческое название : Dolby Digital
Идентификатор кодека : 2000
Продолжительность : 25 м. 24 с.
Вид битрейта : Постоянный
Битрейт : 192 Кбит/сек
Каналы : 2 канала
Channel layout : L R
Частота : 48,0 КГц
Частота кадров : 31,250 кадров/сек (1536 SPF)
Метод сжатия : С потерями
Размер потока : 34,9 Мбайт (10%)
Выравнивание : Разделение по промежуткам
Продолжительность промежутка : 42 мс. (1,04 видеокадр)
Время предзагрузки промежутка : 500 мс.
Service kind : Complete Main

Внимание! Раздача ведётся путём добавления новых серий; при каждом добавлении создаётся новый торрент.
Чтобы начать докачку новой серии, пользователям необходимо сделать следующее:
1. Остановить скачивание;
2. Удалить старый торрент у себя из клиента (старые серии удалять не надо);
3. Скачать новый торрент и запустить его у себя в клиенте вместо старого, при этом указать клиенту путь в старую папку куда и должно происходить скачивание новых серий. Ваш клиент при этом должен произвести хеширование (проверку) старой папки и будет докачивать только те серии, которых у вас ещё нет. Старые серии при этом не удаляются, а продолжают раздаваться! Eсли вы уже удалили старые серии, то предотвратить повторную закачку старых серий можно, отжав галочку в соответствующих местах при запуске нового торрента.
pb.wtf



Скачать Пассажиры. Последняя любовь на Земле через торрент https://i116.fastpic.org/big/2022/0408/3e/da7db8a278fa69236c08aaf8d161403e.jpeg Скачать, смотреть онлайн Пассажиры. Последняя любовь на Земле бесплантно в хорошем качестве Описание: Перед новым водителем желтого мерседеса Кириллом стоит непростая задача — научиться чуткости и эмпатии, которые необходимы для ... 9.1 10 10
Торрент: Зарегистрирован [2022-05-26 22:53] · скачан: 53 раз
Статус: √ проверено
Размер: 2.59 GB
Как cкачать? Как скачать Пассажиры. Последняя любовь на Земле через торрент | UTorrent

% Раздел Тема Автор DL S | L
Наши сериалы [ 6.78 GB ] Пассажиры. Последняя любовь на Земле / Сезон: 2 / Серии: 1-8 из 8 [2022 WEB-DL 1080p] bober100 Скачать
4 | 1
Наши сериалы [ 2.29 GB ] Пассажиры. Последняя любовь на Земле / Сезон: 2 / Серии: 1-8 из 8 [2022 WEB-DLRip-AVC] bober100 Скачать
5 | 1

28-11-2019 20:33  

Отключить всю рекламу на сайте

    Дорогой пользователь! Огромная просьба, поблагодарите релизера, оцените раздачу и оставьте свои комментарий, если Вы скачали Пассажиры. Последняя любовь на Земле через торрент бесплатно!
    Комментировать посты могут только пользователи прошедшие не сложную регистрацию
    Показать сообщения:    

    Пассажиры. Последняя любовь на Земле через торрент
    Скачать бесплатно Пассажиры. Последняя любовь на Земле
    Пассажиры. Последняя любовь на Земле скачать торрент
    Пассажиры. Последняя любовь на Земле смотреть онлайн
    Cкачать фильм Пассажиры. Последняя любовь на Земле бесплатно
    Пассажиры. Последняя любовь на Земле скачать торрент в хорошем качестве
    Пассажиры. Последняя любовь на Земле смотреть онлайн бесплатно в хорошем качестве


    Вы не можете начинать темы
    Вы не можете отвечать на сообщения
    Вы не можете редактировать свои сообщения
    Вы не можете удалять свои сообщения
    Вы не можете голосовать в опросах
    Вы не можете прикреплять файлы к сообщениям
    Вы можете скачивать файлы