Всегда рабочее зеркало без VPN и Proxy просто перед .vidak.icu напиши любое слово или цифру, Пример http://co9g.vidak.icu

MVO

Лицензия

1 сезон

1

1 сезон

iTunes

1 сезон

13

1 сезон

Deluxe

pack

Рекомендуем

Пиратка

30

ВАЖНО

RePack

MK11

RePack

jed

RePack

fifa19

RePack

RDR2

RePack

NEED FOR SPEED™ PAYBACK

Кинопоиск HD

6 сезон

 Острые козырьки 6 сезон

Все сериалы

все сериалы на PB.wtf

RePack

FAR CRY 5
  
Magnet ссылка

Пассажиры. Последняя любовь на Земле / Сезон: 2 / Серии: 1-8 из 8 (Артём Литвиненко) [2022, Драма, фантастика, триллер, WEB-DL 1080p] pb.wtf

Пассажиры. Последняя любовь на Земле через торрент pb.wtf

Раздают: 5 [ 58 KB/s ] Качают: 1 [ 0 KB/s ]
Размер: 6.78 GB | Добавлен: 1 мес. 5 д. назад | Торрент скачан:62 раза
Смотреть онлайн Пассажиры. Последняя любовь на Земле | Скачать    Ребята, помогите собрать деньги на оплату серверов!!!

08-04-2022 03:36 Пассажиры. Последняя любовь на Земле Скачать торрент  

Пассажиры. Последняя любовь на Земле
Год выпуска: 2022
Страна: Россия
Выпущено: START
Жанр: Драма, фантастика, триллер
Продолжительность: ~ 00:26:00
Перевод: Не требуется
Субтитры: отсутствуют

Режиссер: Артём Литвиненко



В ролях: Сергей Гилёв, Анна Чиповская, Кирилл Кяро, Надежда Маркина, Ирина Рахманова, Сергей Шакуров, Наталия Вдовина, Никита Кологривый, Евгений Сидихин, Вероника Мохирева, Юрий Чурсин, Ольга Науменко, Лев Малишава, Евгения Громова, Александра Булычёва, Данил Иванов, Полина Долиндо, Иван Верховых, Инга Фишлер, Руслан Джайбеков, Никита Дювбанов

Описание: В конце первого сезона водитель необычного такси Андрей завершил свою миссию: помог почти трем сотням душ, застрявшим между миром живых и тем светом, добраться до «точки перехода». Его дело должен продолжить Кирилл, один из «неудачных» пассажиров Андрея. Кирилла поставили на место водителя из-за того, что он погубил жизни людей, пристрастив их к запрещенным веществам. Теперь герой должен перевезти столько же пассажиров, сколько человек пострадали по его вине. Перед новым водителем желтого мерседеса Кириллом стоит непростая задача — научиться чуткости и эмпатии, которые необходимы для общения с клиентами такси. Ведь ему нужно помочь застрявшим на этом свете душам добраться до «точки перехода», узнав, что держит их на Земле и не дает уйти из мира живых. Помогать Кириллу в «перевозке душ» будет пассажирка Мэри, которая тоже застряла между двумя мирами. Теперь Кириллу предстоит пройти испытание не только чужими проблемами, но и собственными чувствами. Есть ли у Кирилла и Мэри возможность исправить ошибки прошлого и куда приведут их отношения?

Качество: WEB-DL 1080p
Формат: MKV

Видео: MPEG-4 AVC, ~ 5120 Кбит/с, 1920x804, 25 Кадр/с
Аудио: 48.0 kHz, AC3 Dolby Digital, 2/0 (L,R) ch, ~ 256 kbps
скриншот  скриншот  скриншот  скриншот  

Общее
Уникальный идентификатор : 190264780681629367087030614937230303546 (0x8F23A9F1EC49A5738E7875A451CAE13A)
Полное имя : D:Pasazhiry.S02.2022.WEB-DL.1080p.ExKinoRay\Pasazhiry.S02.E01.2022.WEB-DL.1080p.ExKinoRay.mkv
Формат : Matroska
Версия формата : Version 2
Размер файла : 959 Мбайт
Продолжительность : 25 м. 18 с.
Общий поток : 5 298 Кбит/сек
Дата кодирования : UTC 2022-05-06 11:22:10
Программа кодирования : mkvmerge v5.8.0 ('No Sleep / Pillow') built on Sep 2 2012 15:37:04
Библиотека кодирования : libebml v1.2.3 + libmatroska v1.3.0

Видео
Идентификатор : 1
Формат : AVC
Формат/Информация : Advanced Video Codec
Профиль формата : High@L4
Настройки формата : CABAC / 4 Ref Frames
Параметр CABAC формата : Да
Параметр RefFrames формата : 4 кадра
Идентификатор кодека : V_MPEG4/ISO/AVC
Продолжительность : 25 м. 18 с.
Битрейт : 5 120 Кбит/сек
Ширина : 1 920 пикселей
Высота : 804 пикселя
Соотношение сторон : 2,40:1
Режим частоты кадров : Постоянный
Частота кадров : 25,000 кадров/сек
Цветовое пространство : YUV
Субдискретизация насыщенности : 4:2:0
Битовая глубина : 8 бит
Тип развёртки : Прогрессивная
Бит/(Пиксели*Кадры) : 0.133
Размер потока : 906 Мбайт (94%)
Библиотека кодирования : x264 core 152 r2854 e9a5903
Настройки программы : cabac=1 / ref=3 / deblock=1:0:0 / analyse=0x3:0x113 / me=hex / subme=7 / psy=1 / psy_rd=1.00:0.00 / mixed_ref=1 / me_range=16 / chroma_me=1 / trellis=1 / 8x8dct=1 / cqm=0 / deadzone=21,11 / fast_pskip=1 / chroma_qp_offset=-2 / threads=25 / lookahead_threads=4 / sliced_threads=0 / nr=0 / decimate=1 / interlaced=0 / bluray_compat=0 / constrained_intra=0 / bframes=6 / b_pyramid=2 / b_adapt=1 / b_bias=0 / direct=1 / weightb=1 / open_gop=0 / weightp=2 / keyint=50 / keyint_min=26 / scenecut=0 / intra_refresh=0 / rc_lookahead=40 / rc=2pass / mbtree=1 / bitrate=5120 / ratetol=1.0 / qcomp=0.60 / qpmin=0 / qpmax=69 / qpstep=4 / cplxblur=20.0 / qblur=0.5 / vbv_maxrate=7680 / vbv_bufsize=20480 / nal_hrd=none / filler=0 / ip_ratio=1.40 / aq=1:1.00
Язык : Russian
Default : Да
Forced : Нет

Аудио
Идентификатор : 2
Формат : AC-3
Формат/Информация : Audio Coding 3
Коммерческое название : Dolby Digital
Идентификатор кодека : A_AC3
Продолжительность : 25 м. 18 с.
Вид битрейта : Постоянный
Битрейт : 192 Кбит/сек
Каналы : 2 канала
Channel layout : L R
Частота : 48,0 КГц
Частота кадров : 31,250 кадров/сек (1536 SPF)
Метод сжатия : С потерями
Размер потока : 34,8 Мбайт (4%)
Язык : Russian
Service kind : Complete Main
Default : Да
Forced : Нет

Внимание! Раздача ведётся путём добавления новых серий; при каждом добавлении создаётся новый торрент.
Чтобы начать докачку новой серии, пользователям необходимо сделать следующее:
1. Остановить скачивание;
2. Удалить старый торрент у себя из клиента (старые серии удалять не надо);
3. Скачать новый торрент и запустить его у себя в клиенте вместо старого, при этом указать клиенту путь в старую папку куда и должно происходить скачивание новых серий. Ваш клиент при этом должен произвести хеширование (проверку) старой папки и будет докачивать только те серии, которых у вас ещё нет. Старые серии при этом не удаляются, а продолжают раздаваться! Eсли вы уже удалили старые серии, то предотвратить повторную закачку старых серий можно, отжав галочку в соответствующих местах при запуске нового торрента.
pb.wtf



Скачать Пассажиры. Последняя любовь на Земле через торрент https://i116.fastpic.org/big/2022/0408/3e/da7db8a278fa69236c08aaf8d161403e.jpeg Скачать, смотреть онлайн Пассажиры. Последняя любовь на Земле бесплантно в хорошем качестве Описание: В конце первого сезона водитель необычного такси Андрей завершил свою миссию: помог почти трем сотням душ, застрявшим между миром ... 7.6 10 15
Торрент: Зарегистрирован [2022-05-27 09:03] · скачан: 62 раз
Статус: √ проверено
Размер: 6.78 GB
Как cкачать? Как скачать Пассажиры. Последняя любовь на Земле через торрент | UTorrent

% Раздел Тема Автор DL S | L
Наши сериалы [ 2.29 GB ] Пассажиры. Последняя любовь на Земле / Сезон: 2 / Серии: 1-8 из 8 [2022 WEB-DLRip-AVC] bober100 Скачать
1 | 1
Наши сериалы [ 2.59 GB ] Пассажиры. Последняя любовь на Земле / Сезон: 2 / Серии: 1-8 из 8 [2022 WEB-DLRip] bober100 Скачать
2 | 2


Последний раз редактировалось: bober100 (2022-05-27 09:03), всего редактировалось 4 раз(а)

28-11-2019 20:33  

Отключить всю рекламу на сайте

06-05-2022 13:00 Пассажиры. Последняя любовь на Земле Скачать торрент  

лютое дерьмищеpb.wtf



    Дорогой пользователь! Огромная просьба, поблагодарите релизера, оцените раздачу и оставьте свои комментарий, если Вы скачали Пассажиры. Последняя любовь на Земле через торрент бесплатно!
    Комментировать посты могут только пользователи прошедшие не сложную регистрацию
    Показать сообщения:    

    Пассажиры. Последняя любовь на Земле через торрент
    Скачать бесплатно Пассажиры. Последняя любовь на Земле
    Пассажиры. Последняя любовь на Земле скачать торрент
    Пассажиры. Последняя любовь на Земле смотреть онлайн
    Cкачать фильм Пассажиры. Последняя любовь на Земле бесплатно
    Пассажиры. Последняя любовь на Земле скачать торрент в хорошем качестве
    Пассажиры. Последняя любовь на Земле смотреть онлайн бесплатно в хорошем качестве


    Вы не можете начинать темы
    Вы не можете отвечать на сообщения
    Вы не можете редактировать свои сообщения
    Вы не можете удалять свои сообщения
    Вы не можете голосовать в опросах
    Вы не можете прикреплять файлы к сообщениям
    Вы можете скачивать файлы