Достать ножи: Стеклянная луковица

MVO

Добыча

Дубляж

Уэнсдэй

1 сезон

Тор

Дубляж

13 клиническая

1 сезон

Жестокая ночь

MVO

Одни из нас

1 сезон

Deluxe

pack

Рекомендуем

30

Пиратка

ВАЖНО

ВАЖНО

Ghostwire

Пиратка

jed

RePack

nioh2

RePack

RDR2

RePack

NEED FOR SPEED™ PAYBACK

RePack

скачать торрент

Кинопоиск HD

Острые козырьки 6 сезон

6 сезон

FAR CRY 6

RePack

скачать торрент

Лицензия

скачать торрент

MVO

1

1 сезон

скачать торрент

1 сезон

скачать торрент

Лицензия

  

Зелёные яйца с ветчиной / Green Eggs and Ham / Сезон: 2 / Серии: 1-10 из 10 (Джаред Штерн) [2022, Мультфильм, комедия, приключения, семейный, WEB-DL 1080p] Дубляж [Пифагор]

Зелёные яйца с ветчиной через торрент pb.wtf

Размер: 7.67 GB | Добавлен: 9 мес. назад | Торрент скачан:18 раз
Смотреть онлайн | Скачать | Поддержите нас   

09-04-2022 04:16 Зелёные яйца с ветчиной Скачать торрент  

Зелёные яйца с ветчиной
Green Eggs and Ham
Год выпуска: 2022
Производство: США, Warner Bros. Animation
Жанр: мультфильм, комедия, приключения, семейный
Продолжительность: 00:26:00 мин.
Перевод: Профессиональный (дублированный) | Пифагор
Субтитры: Русские (Forced, Full), английские (SDH), немецкие, испанские, французские, иврит, итальянские, португальские, румынские, украинские

Режиссёр: Лоуренс Гун, Пьеро Пилузо

Роли озвучивали: Майкл Дуглас, Адам Дивайн, Илана Глейзер, Дайан Китон, Джиллиан Белл, Эдди Иззард, Кигэн-Майкл Ки, Джеффри Райт, Ди Брэдли Бейкер, Кит Фергюсон, Дэвид Кэй, Фред Таташиор, Ника Футтерман, Хинден Уолш, Джон Туртурро

Описание: По книге Доктора Сьюза. Сэм-Это-Я похищает из зоопарка редкого зверя кураффа, чтобы выпустить его в естественную среду обитания. После того, как Сэм случайно перепутал свой чемодан, в котором держал зверя, с чемоданом изобретателя-неудачника Чувака-Ли-Я (в первоисточнике у него не было имени), они продолжают свой путь вместе. Их преследуют алчный бизнесмен мистер Снёрж, желающий заполучить кураффа себе в коллекцию, загадочные «Н.Е.Г.О.Д.Я.И.» МакВинкль и Гланц, которые хотят доставить зверя своему боссу, и охотник за головами Козёл, нанятый Снёржем.

rating

Качество: WEB-DL 1080p
Контейнер: MKV

Видео: AVC, 1920x1080 (16:9), 24 fps, ~7131 kbps
Аудио №1: E-AC3, 48 kHz, 6 ch, 640 kbps
Аудио №2: E-AC3, 48 kHz, 6 ch, 640 kbps


Реклама: Отсутствует

Релиз: [email protected]
General
Complete name : Green.Eggs.and.Ham.S02E01.The.Mom.Identity.1080p.NF.WEB-DL.DDP5.1.H.264-EniaHD.mkv
Format : Matroska
Format version : Version 4
File size : 989 MiB
Duration : 30 min 45 s
Overall bit rate mode : Variable
Overall bit rate : 4 495 kb/s
Movie name : Green Eggs and Ham S02E01 [The Mom Identity] - EniaHD
Writing application : mkvmerge v57.0.0 ('Till The End') 64-bit
Writing library : libebml v1.4.2 + libmatroska v1.6.4

Video
ID : 1
Format : AVC
Format/Info : Advanced Video Codec
Format profile : [email protected]
Format settings : CABAC / 3 Ref Frames
Format settings, CABAC : Yes
Format settings, Reference fra : 3 frames
Codec ID : V_MPEG4/ISO/AVC
Duration : 30 min 45 s
Bit rate mode : Variable
Bit rate : 3 212 kb/s
Nominal bit rate : 4 420 kb/s
Maximum bit rate : 6 630 kb/s
Width : 1 920 pixels
Height : 1 080 pixels
Display aspect ratio : 16:9
Frame rate mode : Constant
Frame rate : 24.000 FPS
Color space : YUV
Chroma subsampling : 4:2:0
Bit depth : 8 bits
Scan type : Progressive
Bits/(Pixel*Frame) : 0.065
Stream size : 707 MiB (71%)
Writing library : x264 core 148 r2727 7d026e8
Encoding settings : cabac=1 / ref=3 / deblock=1:0:0 / analyse=0x1:0x111 / me=umh / subme=10 / psy=1 / psy_rd=1.00:0.00 / mixed_ref=1 / me_range=24 / chroma_me=1 / trellis=2 / 8x8dct=0 / cqm=0 / deadzone=21,11 / fast_pskip=1 / chroma_qp_offset=-2 / threads=8 / lookahead_threads=1 / sliced_threads=0 / nr=0 / decimate=1 / interlaced=0 / bluray_compat=0 / stitchable=1 / constrained_intra=0 / bframes=2 / b_pyramid=0 / b_adapt=2 / b_bias=0 / direct=3 / weightb=1 / open_gop=0 / weightp=2 / keyint=250 / keyint_min=24 / scenecut=0 / intra_refresh=0 / rc_lookahead=48 / rc=2pass / mbtree=1 / bitrate=4420 / ratetol=1.0 / qcomp=0.50 / qpmin=6 / qpmax=51 / qpstep=4 / cplxblur=20.0 / qblur=0.5 / vbv_maxrate=6630 / vbv_bufsize=8840 / nal_hrd=vbr / filler=0 / ip_ratio=1.40 / aq=1:1.00
Default : Yes
Forced : No

Audio #1
ID : 2
Format : E-AC-3
Format/Info : Enhanced AC-3
Commercial name : Dolby Digital Plus
Codec ID : A_EAC3
Duration : 30 min 45 s
Bit rate mode : Constant
Bit rate : 640 kb/s
Channel(s) : 6 channels
Channel layout : L R C LFE Ls Rs
Sampling rate : 48.0 kHz
Frame rate : 31.250 FPS (1536 SPF)
Compression mode : Lossy
Stream size : 141 MiB (14%)
Language : Russian
Service kind : Complete Main
Default : Yes
Forced : No

Audio #2
ID : 3
Format : E-AC-3
Format/Info : Enhanced AC-3
Commercial name : Dolby Digital Plus
Codec ID : A_EAC3
Duration : 30 min 45 s
Bit rate mode : Constant
Bit rate : 640 kb/s
Channel(s) : 6 channels
Channel layout : L R C LFE Ls Rs
Sampling rate : 48.0 kHz
Frame rate : 31.250 FPS (1536 SPF)
Compression mode : Lossy
Stream size : 141 MiB (14%)
Language : English
Service kind : Complete Main
Default : No
Forced : No

Text #1
ID : 4
Format : UTF-8
Codec ID : S_TEXT/UTF8
Codec ID/Info : UTF-8 Plain Text
Duration : 27 min 9 s
Bit rate : 19 b/s
Count of elements : 82
Stream size : 3.91 KiB (0%)
Title : Forced
Language : Russian
Default : Yes
Forced : No

Text #2
ID : 5
Format : UTF-8
Codec ID : S_TEXT/UTF8
Codec ID/Info : UTF-8 Plain Text
Duration : 27 min 9 s
Bit rate : 102 b/s
Count of elements : 394
Stream size : 20.4 KiB (0%)
Language : Russian
Default : No
Forced : No

Text #3
ID : 6
Format : UTF-8
Codec ID : S_TEXT/UTF8
Codec ID/Info : UTF-8 Plain Text
Duration : 27 min 9 s
Bit rate : 61 b/s
Count of elements : 365
Stream size : 12.2 KiB (0%)
Language : German
Default : No
Forced : No

Text #4
ID : 7
Format : UTF-8
Codec ID : S_TEXT/UTF8
Codec ID/Info : UTF-8 Plain Text
Duration : 26 min 30 s
Bit rate : 81 b/s
Count of elements : 503
Stream size : 15.8 KiB (0%)
Title : SDH
Language : English
Default : No
Forced : No

Text #5
ID : 8
Format : UTF-8
Codec ID : S_TEXT/UTF8
Codec ID/Info : UTF-8 Plain Text
Duration : 27 min 9 s
Bit rate : 58 b/s
Count of elements : 389
Stream size : 11.7 KiB (0%)
Title : European
Language : Spanish
Default : No
Forced : No

Text #6
ID : 9
Format : UTF-8
Codec ID : S_TEXT/UTF8
Codec ID/Info : UTF-8 Plain Text
Duration : 27 min 9 s
Bit rate : 60 b/s
Count of elements : 368
Stream size : 12.1 KiB (0%)
Language : French
Default : No
Forced : No

Text #7
ID : 10
Format : UTF-8
Codec ID : S_TEXT/UTF8
Codec ID/Info : UTF-8 Plain Text
Duration : 27 min 8 s
Bit rate : 97 b/s
Count of elements : 385
Stream size : 19.3 KiB (0%)
Language : Hebrew
Default : No
Forced : No

Text #8
ID : 11
Format : UTF-8
Codec ID : S_TEXT/UTF8
Codec ID/Info : UTF-8 Plain Text
Duration : 27 min 9 s
Bit rate : 62 b/s
Count of elements : 368
Stream size : 12.5 KiB (0%)
Language : Italian
Default : No
Forced : No

Text #9
ID : 12
Format : UTF-8
Codec ID : S_TEXT/UTF8
Codec ID/Info : UTF-8 Plain Text
Duration : 27 min 9 s
Bit rate : 60 b/s
Count of elements : 377
Stream size : 12.0 KiB (0%)
Title : Brazilian
Language : Portuguese
Default : No
Forced : No

Text #10
ID : 13
Format : UTF-8
Codec ID : S_TEXT/UTF8
Codec ID/Info : UTF-8 Plain Text
Duration : 27 min 9 s
Bit rate : 69 b/s
Count of elements : 377
Stream size : 13.9 KiB (0%)
Language : Romanian
Default : No
Forced : No

Text #11
ID : 14
Format : UTF-8
Codec ID : S_TEXT/UTF8
Codec ID/Info : UTF-8 Plain Text
Duration : 27 min 9 s
Bit rate : 97 b/s
Count of elements : 386
Stream size : 19.5 KiB (0%)
Language : Ukrainian
Default : No
Forced : No
скриншот  скриншот  скриншот  скриншот  
Внимание! Раздача ведётся путём добавления новых серий; при каждом добавлении создаётся новый торрент.
Чтобы начать докачку новой серии, пользователям необходимо сделать следующее:
1. Остановить скачивание;
2. Удалить старый торрент у себя из клиента (старые серии удалять не надо);
3. Скачать новый торрент и запустить его у себя в клиенте вместо старого, при этом указать клиенту путь в старую папку куда и должно происходить скачивание новых серий. Ваш клиент при этом должен произвести хеширование (проверку) старой папки и будет докачивать только те серии, которых у вас ещё нет. Старые серии при этом не удаляются, а продолжают раздаваться! Eсли вы уже удалили старые серии, то предотвратить повторную закачку старых серий можно, отжав галочку в соответствующих местах при запуске нового торрента.




Скачать Зелёные яйца с ветчиной через торрент https://i1-imageban-ru.translate.goog/out/2022/04/08/3abe6aa729cf2f87e5dd6af508bacb65.jpg Скачать, смотреть онлайн Зелёные яйца с ветчиной бесплантно в хорошем качестве Описание: По книге Доктора Сьюза. Сэм-Это-Я похищает из зоопарка редкого зверя кураффа, чтобы выпустить его в естественную среду обитания. ... 10 10 2
Торрент: Зарегистрирован [2022-04-09 04:16] · скачан: 18 раз
Статус: √ проверено
Размер: 7.67 GB
Как cкачать? Как скачать Зелёные яйца с ветчиной через торрент | UTorrent

% Раздел Тема Автор DL S | L
Мультсериалы [ 21.05 GB ] Зелёные яйца с ветчиной / Green Eggs and Ham / Сезон: 1 / Серии: 1-13 из 13 | Пифагор | 1080p bober100 Скачать
1 | 0

28-11-2019 20:33  


Отключить вcю реклaмy на сайте, в т.ч. и в плеере онлайн просмотра!

    Дорогой пользователь! Огромная просьба, поблагодарите релизера, оцените раздачу и оставьте свои комментарий, если Вы скачали Зелёные яйца с ветчиной через торрент бесплатно!!
    Комментировать посты могут только пользователи прошедшие не сложную регистрацию
    Показать сообщения:    


    Зелёные яйца с ветчиной через торрент
    Скачать бесплатно Зелёные яйца с ветчиной
    Зелёные яйца с ветчиной скачать торрент
    Зелёные яйца с ветчиной смотреть онлайн
    Cкачать фильм Зелёные яйца с ветчиной бесплатно
    Зелёные яйца с ветчиной скачать торрент в хорошем качестве
    Зелёные яйца с ветчиной смотреть онлайн бесплатно в хорошем качестве
    Вы не можете начинать темы
    Вы не можете отвечать на сообщения
    Вы не можете редактировать свои сообщения
    Вы не можете удалять свои сообщения
    Вы не можете голосовать в опросах
    Вы не можете прикреплять файлы к сообщениям
    Вы можете скачивать файлы
    Зелёные яйца с ветчиной / Green Eggs and Ham / Сезон: 2 / Серии: 1-10 из 10 [2022, Мультфильм, комедия, приключения, семейный, WEB-DL 1080p] Дубляж [Пифагор] смотреть онлайн, скачать торрент picoco.icu