Всегда рабочее зеркало без VPN и Proxy просто перед .vidak.icu напиши любое слово или цифру, Пример http://x8ri.vidak.icu

MVO

MVO

1 сезон

1

1 сезон

iTunes

1 сезон

13

1 сезон

Deluxe

pack

Рекомендуем

Repack

30

ВАЖНО

RePack

MK11

RePack

jed

RePack

fifa19

RePack

RDR2

RePack

NEED FOR SPEED™ PAYBACK

Кинопоиск HD

6 сезон

 Острые козырьки 6 сезон

Все сериалы

все сериалы на PB.wtf

RePack

FAR CRY 5
  
Magnet ссылка

Код 355 / The 355 (Саймон Кинберг) [2022, Триллер, боевик, UHD BDRemux 2160p, (Dolby Vision Profile 8)] DUB [СинеЛаб СаундМикс] pb.wtf

Код 355 через торрент pb.wtf

Размер: 42.63 GB | Добавлен: 4 мес. 2 д. назад | Торрент скачан:30 раз
Смотреть онлайн Код 355 | Скачать    Ребята, помогите собрать деньги на оплату серверов!!!

09-04-2022 09:02 Код 355 Скачать торрент  

Код 355
The 355

Год выпуска: 2022
Страна: США, Китай
Выпущено: CAA Media Finance, FilmNation Entertainment, Freckle Films, Genre Films, Huayi Brothers Media, Perfect World (Beijing) Pictures Co., Universal Pictures
Жанр: Триллер, боевик
Продолжительность: 02:03:31
Перевод: Дублированный | СинеЛаб СаундМикс
Субтитры: Русские (Forced), английские

Режиссер: Саймон Кинберг

rating

В ролях: Джессика Честейн, Дайан Крюгер, Пенелопа Крус, Лупита Нионго, Бинбин Фань, Себастьян Стэн, Эдгар Рамирес, Джейсон Вонг, Лео Стаар, Хитен Патель, Рафаэль Аклок, Эви Рэй

Описание: Когда сверхсекретное оружие попадает не в те руки, агент ЦРУ Мэйс Браун (Джессика Честейн) объединяется с немецким агентом Мари (Дайан Крюгер), бывшей сотрудницей МИ-6 Хадижей (Лупита Нионго) и колумбийским психологом Грасиелой (Пенелопа Крус), чтобы вернуть его. Героиням противостоит загадочная Лин Ми Шень (Бинбин Фань), которая следит за каждым их шагом.

Качество: UHD BDRemux 2160p | Dolby Vision Profile 8
Формат: MKV

Видео: 3840x2160 at 23.976 fps, MPEG-H HEVC HDR, Dolby Vision ~ 44900 kbps avg
Аудио #01: 48 kHz, AC3, 5.1, 640 Kbps | Дублированный | СинеЛаб СаундМикс | RUS |
Аудио #02: 48 kHz, TrueHD, 7.1, 3206 Kbps | Оригинал | ENG |
Аудио #03: 48 kHz, AC3, 5.1, 640 Kbps | Оригинал | ENG |
скриншот  скриншот  скриншот  скриншот  скриншот  

General
Unique ID : 148554013712818932500823105527950573934 (0x6FC2765BB51470085D5443DA3DF7816E)
Complete name : D:Video1The.355.2022.BDREMUX.2160p.HDR.DVP8.seleZen.mkv
Format : Matroska
Format version : Version 4
File size : 42.6 GiB
Duration : 2 h 3 min
Overall bit rate mode : Variable
Overall bit rate : 49.4 Mb/s
Movie name : The 355 2022 from seleZen
Encoded date : UTC 2022-04-08 11:54:01
Writing application : mkvmerge v59.0.0 ('Shining Star') 64-bit
Writing library : libebml v1.4.2 + libmatroska v1.6.4

Video
ID : 1
ID in the original source m : 4117 (0x1015)
Format : HEVC
Format/Info : High Efficiency Video Coding
Format profile : Main [email protected]@High
HDR format : Dolby Vision, Version 1.0, dvhe.08.06, BL+RPU, Blu-ray compatible / SMPTE ST 2086, HDR10 compatible
Codec ID : V_MPEGH/ISO/HEVC
Duration : 2 h 3 min
Bit rate : 44.9 Mb/s
Width : 3 840 pixels
Height : 2 160 pixels
Display aspect ratio : 16:9
Frame rate mode : Constant
Frame rate : 23.976 (24000/1001) FPS
Color space : YUV
Chroma subsampling : 4:2:0 (Type 2)
Bit depth : 10 bits
Bits/(Pixel*Frame) : 0.226
Stream size : 38.7 GiB (91%)
Language : English
Default : No
Forced : No
Color range : Limited
Color primaries : BT.2020
Transfer characteristics : PQ
Matrix coefficients : BT.2020 non-constant
Mastering display color pri : BT.2020
Mastering display luminance : min: 0.0001 cd/m2, max: 1000 cd/m2
Maximum Content Light Level : 868 cd/m2
Maximum Frame-Average Light : 367 cd/m2
Original source medium : Blu-ray

Audio #1
ID : 2
Format : AC-3
Format/Info : Audio Coding 3
Commercial name : Dolby Digital
Codec ID : A_AC3
Duration : 2 h 2 min
Bit rate mode : Constant
Bit rate : 640 kb/s
Channel(s) : 6 channels
Channel layout : L R C LFE Ls Rs
Sampling rate : 48.0 kHz
Frame rate : 31.250 FPS (1536 SPF)
Compression mode : Lossy
Stream size : 563 MiB (1%)
Title : Dub
Language : Russian
Service kind : Complete Main
Default : Yes
Forced : Yes

Audio #2
ID : 3
Format : MLP FBA 16-ch
Format/Info : Meridian Lossless Packing FBA with 16-channel presentation
Commercial name : Dolby TrueHD with Dolby Atmos
Codec ID : A_TRUEHD
Duration : 2 h 3 min
Bit rate mode : Variable
Bit rate : 3 206 kb/s
Maximum bit rate : 5 922 kb/s
Channel(s) : 8 channels
Channel layout : L R C LFE Ls Rs Lb Rb
Sampling rate : 48.0 kHz
Frame rate : 1 200.000 FPS (40 SPF)
Compression mode : Lossless
Stream size : 2.77 GiB (6%)
Title : Original
Language : English
Default : No
Forced : No
Number of dynamic objects : 13
Bed channel count : 1 channel
Bed channel configuration : LFE

Audio #3
ID : 4
Format : AC-3
Format/Info : Audio Coding 3
Commercial name : Dolby Digital
Codec ID : A_AC3
Duration : 2 h 3 min
Bit rate mode : Constant
Bit rate : 640 kb/s
Channel(s) : 6 channels
Channel layout : L R C LFE Ls Rs
Sampling rate : 48.0 kHz
Frame rate : 31.250 FPS (1536 SPF)
Compression mode : Lossy
Stream size : 565 MiB (1%)
Language : English
Service kind : Complete Main
Default : No
Forced : No

Text #1
ID : 5
Format : UTF-8
Codec ID : S_TEXT/UTF8
Codec ID/Info : UTF-8 Plain Text
Duration : 1 h 48 min
Bit rate : 0 b/s
Count of elements : 12
Stream size : 486 Bytes (0%)
Title : Forced
Language : Russian
Default : Yes
Forced : Yes

Text #2
ID : 6
Format : UTF-8
Codec ID : S_TEXT/UTF8
Codec ID/Info : UTF-8 Plain Text
Duration : 2 h 1 min
Bit rate : 48 b/s
Count of elements : 1608
Stream size : 43.2 KiB (0%)
Title : Full
Language : English
Default : No
Forced : No

Text #3
ID : 7
Format : UTF-8
Codec ID : S_TEXT/UTF8
Codec ID/Info : UTF-8 Plain Text
Duration : 2 h 2 min
Bit rate : 56 b/s
Count of elements : 1901
Stream size : 50.4 KiB (0%)
Title : SDH
Language : English
Default : No
Forced : No

Menu
00:00:00.000 : Глава 01
00:11:45.079 : Глава 02
00:20:22.638 : Глава 03
00:31:01.985 : Глава 04
00:40:39.520 : Глава 05
00:53:02.888 : Глава 06
01:02:58.274 : Глава 07
01:13:06.507 : Глава 08
01:22:14.763 : Глава 09
01:31:37.283 : Глава 10
01:38:45.336 : Глава 11
01:48:09.733 : Глава 12

pb.wtf



Скачать Код 355 через торрент https://i115.fastpic.org/big/2022/0409/19/a39aa0f9067999f1386263f77445fb19.jpg Скачать, смотреть онлайн Код 355 бесплантно в хорошем качестве Описание: Когда сверхсекретное оружие попадает не в те руки, агент ЦРУ Мэйс Браун (Джессика Честейн) объединяется с немецким агентом Мари ... 10 10 5
Торрент: Зарегистрирован [2022-04-09 09:02] · скачан: 30 раз
Статус: √ проверено
Размер: 42.63 GB
Как cкачать? Как скачать Код 355 через торрент | UTorrent

% Раздел Тема Автор DL S | L
Ultra HD (UHD: 2K, 4K, 8K) — видео сверхвысокой чёткости [ 56.34 GB ] Код 355 / The 355 [2022 UHD BDRemux 2160p ] DUB [СинеЛаб СаундМикс] bober100 Скачать
2 | 0
Фильмы 2022 [DVDrip, WEB-DLRip, HDrip] (DUB, MVO) [ 746 MB ] Код 355 / The 355 [2022 HDRip] DUB [СинеЛаб СаундМикс] bober100 Скачать
2 | 0
Фильмы [HD 720p, 1080p] (Хороший звук DUB, MVO) [ 7.08 GB ] Код 355 / The 355 [2022 BDRip 72Op] DUB [СинеЛаб СаундМикс] bober100 Скачать
1 | 0
Фильмы [HD 720p, 1080p] (Хороший звук DUB, MVO) [ 13.51 GB ] Код 355 / The 355 [2022 BDRip 1O8Op] DUB [СинеЛаб СаундМикс] bober100 Скачать
3 | 0
Фильмы 2022 [DVDrip, WEB-DLRip, HDrip] (DUB, MVO) [ 2.45 GB ] Код 355 / The 355 [2022 HDRip-AVC] DUB [СинеЛаб СаундМикс] bober100 Скачать
4 | 0
Фильмы (Blu-ray, BD-Remux, HDDVD) [ 30.71 GB ] Код 355 / The 355 [2022 BD Remux 1O8Op] DUB [СинеЛаб СаундМикс] bober100 Скачать
1 | 0
Фильмы 2022 [DVDrip, WEB-DLRip, HDrip] (DUB, MVO) [ 1.46 GB ] Код 355 / The 355 [2022 BDRip] DUB [СинеЛаб СаундМикс] bober100 Скачать
6 | 0

28-11-2019 20:33  

Отключить вcю реклaмy на сайте

    Дорогой пользователь! Огромная просьба, поблагодарите релизера, оцените раздачу и оставьте свои комментарий, если Вы скачали Код 355 через торрент бесплатно!
    Комментировать посты могут только пользователи прошедшие не сложную регистрацию
    Показать сообщения:    

    Код 355 через торрент
    Скачать бесплатно Код 355
    Код 355 скачать торрент
    Код 355 смотреть онлайн
    Cкачать фильм Код 355 бесплатно
    Код 355 скачать торрент в хорошем качестве
    Код 355 смотреть онлайн бесплатно в хорошем качестве


    Вы не можете начинать темы
    Вы не можете отвечать на сообщения
    Вы не можете редактировать свои сообщения
    Вы не можете удалять свои сообщения
    Вы не можете голосовать в опросах
    Вы не можете прикреплять файлы к сообщениям
    Вы можете скачивать файлы