Всегда рабочее зеркало без VPN и Proxy просто перед .vidak.icu напиши любое слово или цифру, Пример http://gnrs.vidak.icu

iTunes

2 сезон

1 сезон

1

1 сезон

iTunes

2 сезон

13

1 сезон

Deluxe

pack

Рекомендуем

Пиратка

30

ВАЖНО

RePack

MK11

RePack

jed

RePack

fifa19

RePack

RDR2

RePack

NEED FOR SPEED™ PAYBACK

Кинопоиск HD

6 сезон

 Острые козырьки 6 сезон

Все сериалы

все сериалы на PB.wtf

RePack

FAR CRY 5

Anonymous, нам критически не хватает 5601 руб. на оплату серверов и переферии за Апрель, помоги нам пожалуйста, вся надежда только на тебя. В благодарность мы отключим тебе всю рекламу на сайте!

×
  
Magnet ссылка

Фантастические твари: Тайны Дамблдора / Fantastic Beasts: The Secrets of Dumbledore (Дэвид Йейтс) [2022, Фэнтези, приключения, семейный, CamRip 720p] MVO [КОЛОБОК] pb.wtf

Фантастические твари: Тайны Дамблдора через торрент pb.wtf

Раздают: 23 [ 0 KB/s ]
Размер: 2.72 GB | Добавлен: 1 мес. 17 д. назад | Торрент скачан:556 раз
Смотреть онлайн Фантастические твари: Тайны Дамблдора | Скачать    Ребята, помогите собрать деньги на оплату серверов!!!

11-04-2022 14:47 Фантастические твари: Тайны Дамблдора Скачать торрент  

Фантастические твари: Тайны Дамблдора
Fantastic Beasts: The Secrets of Dumbledore

Год выпуска: 2022
Страна: Великобритания, США
Выпущено: Heyday Films, Warner Bros.
Жанр: Фэнтези, приключения, семейный
Продолжительность: 02:12:08
Перевод: Любительский (многоголосый) | КОЛОБОК
Субтитры: отсутствуют

Режиссер: Дэвид Йейтс

rating

В ролях: Эдди Редмэйн, Джуд Лоу, Эзра Миллер, Дэн Фоглер, Элисон Судол, Каллум Тернер, Джессика Уильямс, Кэтрин Уотерстон, Мадс Миккельсен, Оливер Мазуччи

Описание: Профессор Альбус Дамблдор узнает, что могущественный темный волшебник Геллерт Грин-де-Вальд планирует захватить Влacть над миром. Понимая, что не сможет остановить его в одиночку, Дамблдор просит магозоолога Ньюта Саламандера возглавить команду из выдающихся волшебников и одного отважного магла-пекаря. Им предстоят невероятно опасные приключения, встреча со старыми и укрощение новых магических существ и борьба со сторонниками Грин-де-Вальда, которых становится все больше. Но какая роль в этой миссии уготована самому Дамблдору?

Качество: CamRip 720p
Формат: MKV

Видео: AVC/H.264, 1280x536, ~2722 kbps
Аудио: AС-3, 2 ch, 224 kbps
скриншот  скриншот  скриншот  скриншот  скриншот  

Общее
Уникальный идентификатор : 228122633102721429823577215091692303834 (0xAB9ED22D9CEEB357B987D4F9A8EC75DA)
Полное имя : F:\[Anf].Fantastic.Beasts.The.Secrets.of.Dumbledore.(2022).CamRip.[720p-LQ].mkv
Формат : Matroska
Версия формата : Version 4
Размер файла : 2,72 Гбайт
Продолжительность : 2 ч. 12 м.
Режим общего битрейта : Постоянный
Общий поток : 2 948 Кбит/сек
Название фильма : Фантастические твари: Тайны Дамблдора / Fantastic Beasts: The Secrets of Dumbledore_(2022)
Дата кодирования : UTC 2022-04-10 19:15:23
Программа кодирования : mkvmerge v8.3.0 ('Over the Horizon') 64bit
Библиотека кодирования : libebml v1.3.1 + libmatroska v1.4.2
Обложка : Yes
Attachments : cover.jpg
Видео
Идентификатор : 1
Формат : AVC
Формат/Информация : Advanced Video Codec
Профиль формата : High@L4.1
Настройки формата : CABAC / 4 Ref Frames
Параметр CABAC формата : Да
Параметр RefFrames формата : 4 кадра
Идентификатор кодека : V_MPEG4/ISO/AVC
Продолжительность : 2 ч. 12 м.
Вид битрейта : Постоянный
Битрейт : 2 722 Кбит/сек
Номинальный битрейт : 3 000 Кбит/сек
Ширина : 1 280 пикселей
Высота : 536 пикселей
Соотношение сторон : 2,40:1
Режим частоты кадров : Постоянный
Частота кадров : 23,976 (24000/1001) кадра/сек
Стандарт вещания : Component
Цветовое пространство : YUV
Субдискретизация насыщенности : 4:2:0
Битовая глубина : 8 бит
Тип развёртки : Прогрессивная
Бит/(Пиксели*Кадры) : 0.165
Размер потока : 2,51 Гбайт (92%)
Заголовок : -=Anrif=-
Библиотека кодирования : x264 core 155
Настройки программы : cabac=1 / ref=4 / deblock=1:0:0 / analyse=0x3:0x3 / me=dia / subme=1 / psy=1 / psy_rd=1.00:0.00 / mixed_ref=0 / me_range=16 / chroma_me=1 / trellis=0 / 8x8dct=1 / cqm=1 / deadzone=21,11 / fast_pskip=1 / chroma_qp_offset=0 / threads=17 / lookahead_threads=2 / sliced_threads=0 / slices=1 / nr=0 / decimate=1 / interlaced=0 / minigop=0 / stitchable=1 / constrained_intra=0 / bframes=2 / b_pyramid=0 / b_adapt=0 / b_bias=0 / direct=1 / weightb=1 / open_gop=1 / weightp=0 / keyint=240 / keyint_min=23 / scenecut=40 / intra_refresh=0 / rc_lookahead=0 / rc=cbr / mbtree=0 / bitrate=3000 / ratetol=1.0 / qcomp=0.60 / qpmin=1 / qpmax=69 / qpstep=4 / vbv_maxrate=3000 / vbv_bufsize=3000 / nal_hrd=cbr / filler=1 / ip_ratio=1.40 / pb_ratio=1.30 / aq=1:1.00
Язык : English
Default : Да
Forced : Нет
Цветовой диапазон : Limited
Основные цвета : BT.709
Характеристики трансфера : BT.709
Коэффициенты матрицы : BT.709
Аудио
Идентификатор : 2
Формат : AC-3
Формат/Информация : Audio Coding 3
Коммерческое название : Dolby Digital
Идентификатор кодека : A_AC3
Продолжительность : 2 ч. 12 м.
Вид битрейта : Постоянный
Битрейт : 224 Кбит/сек
Каналы : 2 канала
Channel layout : L R
Частота : 48,0 КГц
Частота кадров : 31,250 кадров/сек (1536 SPF)
Метод сжатия : С потерями
Размер потока : 212 Мбайт (8%)
Заголовок : (DVO, KoloBok)
Язык : Russian
Service kind : Complete Main
Default : Да
Forced : Нет

pb.wtf
!bober100 писал(а):

Есть Реклама!!!



Скачать Фантастические твари: Тайны Дамблдора через торрент http://i7.imageban.ru/out/2022/04/10/5b4b8051d925619bd153a72ed79056d9.jpg Скачать, смотреть онлайн Фантастические твари: Тайны Дамблдора бесплантно в хорошем качестве Описание: Профессор Альбус Дамблдор узнает, что могущественный темный волшебник Геллерт Грин-де-Вальд планирует захватить Влacть над миром. ... 9.1 10 13
Info! Золотая раздача, скачанное не засчитывается.
Торрент: Зарегистрирован [2022-04-11 14:47] · скачан: 556 раз
Статус: T временная
Размер: 2.72 GB
Как cкачать? Как скачать Фантастические твари: Тайны Дамблдора через торрент | UTorrent

% Раздел Тема Автор DL S | L
T Фильмы (WEB-DL 720p, 1080p) [ 7.8 GB ] Фантастические твари: Тайны Дамблдора / Fantastic Beasts: The Secrets of Dumbledore [2022 WEBRip 1080p] 2xMVO [HDRezka Studio NewComers] bober100 Скачать
47 | 0
T Фильмы (WEB-DL 720p, 1080p) [ 2.66 GB ] Фантастические твари: Тайны Дамблдора / Fantastic Beasts: The Secrets of Dumbledore [2022 WEBRip 1080p] [MVO] + [Ukr MVO] killermax2013 Скачать
21 | 0

28-11-2019 20:33  

Отключить всю рекламу на сайте

11-04-2022 18:06 Фантастические твари: Тайны Дамблдора Скачать торрент  

интересно в РФ будет профессиональная озвучка?pb.wtf
Kbober100 писал(а):

Будет



12-04-2022 17:52 Фантастические твари: Тайны Дамблдора Скачать торрент  

спасибки заценим.pb.wtf



14-04-2022 16:55 Фантастические твари: Тайны Дамблдора Скачать торрент  

Главную тайну Дамблдора мы уже узнали во второй частиpb.wtf



18-04-2022 14:10 Фантастические твари: Тайны Дамблдора Скачать торрент  

господа, это экранка. зачем ее пихать в фильмы со спонсором???pb.wtf



18-04-2022 14:20 Фантастические твари: Тайны Дамблдора Скачать торрент  

качество , звук , реклама супер ) почему она не в экранках?pb.wtf



15-05-2022 16:19 Фантастические твари: Тайны Дамблдора Скачать торрент  

Скачал - удалил... Зря качал... 1xbet суют свою заставку просто поцентру экрана... Я все понимаю - но зачем портить и без того слабого качества картинку?pb.wtf



18-05-2022 13:19 Фантастические твари: Тайны Дамблдора Скачать торрент  

Ну просто настоящие фантастические твари: дамблдор гей и другиеpb.wtf



18-05-2022 13:20 Фантастические твари: Тайны Дамблдора Скачать торрент  

Это ж надо было так назвать фильм, тайны дамблдора. Просто порнухаpb.wtf



    Дорогой пользователь! Огромная просьба, поблагодарите релизера, оцените раздачу и оставьте свои комментарий, если Вы скачали Фантастические твари: Тайны Дамблдора через торрент бесплатно!
    Комментировать посты могут только пользователи прошедшие не сложную регистрацию
    Показать сообщения:    

    Фантастические твари: Тайны Дамблдора через торрент
    Скачать бесплатно Фантастические твари: Тайны Дамблдора
    Фантастические твари: Тайны Дамблдора скачать торрент
    Фантастические твари: Тайны Дамблдора смотреть онлайн
    Cкачать фильм Фантастические твари: Тайны Дамблдора бесплатно
    Фантастические твари: Тайны Дамблдора скачать торрент в хорошем качестве
    Фантастические твари: Тайны Дамблдора смотреть онлайн бесплатно в хорошем качестве


    Вы не можете начинать темы
    Вы не можете отвечать на сообщения
    Вы не можете редактировать свои сообщения
    Вы не можете удалять свои сообщения
    Вы не можете голосовать в опросах
    Вы не можете прикреплять файлы к сообщениям
    Вы можете скачивать файлы