Всегда рабочее зеркало без VPN и Proxy просто перед .vidak.icu напиши любое слово или цифру, Пример http://6o72.vidak.icu

MVO

Лицензия

1 сезон

1

1 сезон

iTunes

1 сезон

13

1 сезон

Deluxe

pack

Рекомендуем

Пиратка

30

ВАЖНО

RePack

MK11

RePack

jed

RePack

fifa19

RePack

RDR2

RePack

NEED FOR SPEED™ PAYBACK

Кинопоиск HD

6 сезон

 Острые козырьки 6 сезон

Все сериалы

все сериалы на PB.wtf

RePack

FAR CRY 5

Anonymous, нам критически не хватает 2100 руб. на оплату серверов и переферии за МАЙ, помоги нам пожалуйста, вся надежда только на тебя. В благодарность мы отключим тебе всю рекламу на сайте!

×
  
Magnet ссылка

Костюм / The Outfit (Грэм Мур) [2022, Драма, криминал, WEB-DL 1080p] DVO [Pazl Voice] pb.wtf

Костюм через торрент pb.wtf

Раздают: 9 [ 0 KB/s ]
Размер: 5.84 GB | Добавлен: 2 мес. 17 д. назад | Торрент скачан:213 раз
Смотреть онлайн Костюм | Скачать    Ребята, помогите собрать деньги на оплату серверов!!!

11-04-2022 17:14 Костюм Скачать торрент  

Костюм
The Outfit

Год выпуска: 2022
Страна: США
Выпущено: FilmNation Entertainment, Focus Features, Scoop Productions (II)
Жанр: Драма, криминал
Продолжительность: 01:45:22
Перевод: Любительский (двухголосый) | Pazl Voice
Субтитры: Aнглийские

Режиссер: Грэм Мур

rating

В ролях: Зои Дойч, Марк Райлэнс, Дилан О’Брайен, Никки Амука-Берд, Саймон Рассел Бил, Джонатан МакКлейн, Алан Мехдизаде, Чиеду Агбор, Михал Форейтек, Скуп Вассерштейн, Майкл Аддо, Стив Чатфилд, Джон Гамли-Мейсон, Райан Холл, Лаурис Карклинс, Уильям Китч, Стивен Нокс, Джонни Флинн

Описание: История гениального портного Леонарда, который шил костюмы для успешных английских джентльменов на улице Сэвил-Роу. Но по стечению обстоятельств он вынужден переехать в Чикаго и открыть дело там. Но обычные люди не могут позволить себе такие костюмы. А вот гангстеры.

Качество: WEB-DL 1080p
Формат: MKV

Видео: MPEG-4 AVC, 6847 Кбит/с, 1920x960
Аудио #1: AC3, 6 ch, 448 Кбит/с | RUS |
Аудио #2: E-AC3, 6 ch, 640 Кбит/с | ENG |
скриншот  скриншот  скриншот  скриншот  скриншот  скриншот  

General
Unique ID : 293624690490379396588280618067315599444 (0xDCE60EF22AED30729C4476D000172854)
Complete name : E:TorrentsThe.Outfit.2022.1080p.AMZN_от New-Team.mkv
Format : Matroska
Format version : Version 4
File size : 5.84 GiB
Duration : 1 h 45 min
Overall bit rate : 7 937 kb/s
Movie name : The.Outfit.2022.1080p.AMZN_от New-Team
Encoded date : UTC 2022-04-11 16:22:53
Writing application : mkvmerge v59.0.0 ('Shining Star') 64-bit
Writing library : libebml v1.4.2 + libmatroska v1.6.4

Video
ID : 1
Format : AVC
Format/Info : Advanced Video Codec
Format profile : High@L4
Format settings : CABAC / 4 Ref Frames
Format settings, CABAC : Yes
Format settings, Reference : 4 frames
Codec ID : V_MPEG4/ISO/AVC
Duration : 1 h 45 min
Bit rate mode : Constant
Bit rate : 6 847 kb/s
Nominal bit rate : 10 000 kb/s
Width : 1 920 pixels
Height : 960 pixels
Display aspect ratio : 2.000
Frame rate mode : Constant
Frame rate : 23.976 (24000/1001) FPS
Color space : YUV
Chroma subsampling : 4:2:0
Bit depth : 8 bits
Scan type : Progressive
Bits/(Pixel*Frame) : 0.155
Stream size : 5.04 GiB (86%)
Default : Yes
Forced : No
Color range : Limited
Color primaries : BT.709
Transfer characteristics : BT.709
Matrix coefficients : BT.709

Audio #1
ID : 2
Format : AC-3
Format/Info : Audio Coding 3
Commercial name : Dolby Digital
Codec ID : A_AC3
Duration : 1 h 45 min
Bit rate mode : Constant
Bit rate : 448 kb/s
Channel(s) : 6 channels
Channel layout : L R C LFE Ls Rs
Sampling rate : 48.0 kHz
Frame rate : 31.250 FPS (1536 SPF)
Compression mode : Lossy
Stream size : 338 MiB (6%)
Title : [DVO] Pazl Voice
Language : Russian
Service kind : Complete Main
Default : Yes
Forced : No

Audio #2
ID : 3
Format : E-AC-3
Format/Info : Enhanced AC-3
Commercial name : Dolby Digital Plus
Codec ID : A_EAC3
Duration : 1 h 45 min
Bit rate mode : Constant
Bit rate : 640 kb/s
Channel(s) : 6 channels
Channel layout : L R C LFE Ls Rs
Sampling rate : 48.0 kHz
Frame rate : 31.250 FPS (1536 SPF)
Compression mode : Lossy
Stream size : 482 MiB (8%)
Title : English
Language : English
Service kind : Complete Main
Default : No
Forced : No

Text #1
ID : 4
Format : UTF-8
Codec ID : S_TEXT/UTF8
Codec ID/Info : UTF-8 Plain Text
Duration : 1 h 44 min
Bit rate : 61 b/s
Count of elements : 1649
Stream size : 47.2 KiB (0%)
Title : English
Language : English
Default : No
Forced : No

Text #2
ID : 5
Format : UTF-8
Codec ID : S_TEXT/UTF8
Codec ID/Info : UTF-8 Plain Text
Duration : 1 h 44 min
Bit rate : 62 b/s
Count of elements : 1727
Stream size : 48.2 KiB (0%)
Title : English [SDH]
Language : English
Default : No
Forced : No

pb.wtf



Скачать Костюм через торрент https://i117.fastpic.org/big/2022/0411/94/8e98d62363cfac4eacc850f235a55294.jpeg Скачать, смотреть онлайн Костюм бесплантно в хорошем качестве Описание: История гениального портного Леонарда, который шил костюмы для успешных английских джентльменов на улице Сэвил-Роу. Но по ... 9.3 10 7
Торрент: Зарегистрирован [2022-04-11 17:14] · скачан: 213 раз
Статус: T временная
Размер: 5.84 GB
Как cкачать? Как скачать Костюм через торрент | UTorrent

% Раздел Тема Автор DL S | L
T Фильмы 2022 (Звук TS, Cam, VO, DVO) [ 2.09 GB ] Костюм / The Outfit [2022 WEB-DLRip-AVC] DVO [Pazl Voice] от ExKinoRay Lithuania Скачать
4 | 0
T Фильмы 2022 (Звук TS, Cam, VO, DVO) [ 2.22 GB ] Костюм / The Outfit [2022 WEB-DLRip-AVC] DVO [Pazl Voice] bober100 Скачать
2 | 0

28-11-2019 20:33  

Отключить всю рекламу на сайте

    Дорогой пользователь! Огромная просьба, поблагодарите релизера, оцените раздачу и оставьте свои комментарий, если Вы скачали Костюм через торрент бесплатно!
    Комментировать посты могут только пользователи прошедшие не сложную регистрацию
    Показать сообщения:    

    Костюм через торрент
    Скачать бесплатно Костюм
    Костюм скачать торрент
    Костюм смотреть онлайн
    Cкачать фильм Костюм бесплатно
    Костюм скачать торрент в хорошем качестве
    Костюм смотреть онлайн бесплатно в хорошем качестве


    Вы не можете начинать темы
    Вы не можете отвечать на сообщения
    Вы не можете редактировать свои сообщения
    Вы не можете удалять свои сообщения
    Вы не можете голосовать в опросах
    Вы не можете прикреплять файлы к сообщениям
    Вы можете скачивать файлы